特警判官[国英多音轨/简英字幕].Dredd.2012.BluRay.1080p.x265.10bit.2Audio-MiniHD 6.03GB

版主小s 3月前 150

✔资源类型:暂未分类   ✔电影年份:2012   ✔电影地区:欧美   ✔电影分类:动作

◎标  题 特警判官
◎译  名 超时空战警: 重装上阵(台) / 新特警判官3D
◎片  名 Dredd
◎年  代 2012
◎产  地 英国 / 美国 / 印度 / 南非
◎类  别 动作 / 科幻 / 惊悚 / 犯罪
◎语  言 英语
◎上映日期 2013-03-01(中国大陆) / 2012-09-21(美国)
◎IMDb评分 7.1/10 (265425人评价)
◎IMDb链接 https://www.imdb.com/title/tt1343727/
◎豆瓣评分 6.5/10 (34023人评价)
◎豆瓣链接 https://movie.douban.com/subject/3387483/
◎片  长 90分钟(中国大陆) / 95分钟(美国)
◎导  演 皮特·特拉维斯 Pete Travis
◎编  剧 亚历克斯·加兰 Alex Garland
       约翰·瓦格纳 John Wagner
       卡洛斯·埃斯克拉 Carlos Ezquerra
       约翰·瓦格尔 John Wagner
◎演  员 卡尔·厄本 Karl Urban
       詹森·库伯 Jason Cope
       奥莉薇·瑟尔比 Olivia Thirlby
       芮姬·阿约拉 Rakie Ayola
       琳娜·海蒂 Lena Headey
       塔梅尔·伯贾克 Tamer Burjaq
       伍德·哈里斯 Wood Harris
       道比·欧帕瑞 Deobia Oparei
       帕特里克·利斯特 Patrick Lyster
       查德·菲利普斯 Chad Phillips
       多姆纳尔·格里森 Domhnall Gleeson
       乔·瓦兹 Joe Vaz
       弗朗西斯·乔勒 Francis Chouler
       Junior Singo Junior Singo
       兰利·柯克伍德 Langley Kirkwood
       卡尔·桑宁 Karl Thaning
       郭易峰 Yifeng Guo

◎标  签 科幻 / 动作 / 暴力 / 美国 / 犯罪 / 血腥 / 2012 / 漫画改编

◎简  介
    未来世界,地球爆发了惨绝人寰的核战争。曾经显赫一时的超级大国美利坚合众国,也在连番的自戕战争中灰飞烟灭。现如今,以当初华盛顿等地为中心,高高的围墙将被核污染的大地隔绝在外,仅存的8亿人类生活在这名为超级城市一号的封闭空间内。只是人类从来不曾吸取教训,各种恶性犯罪层出不穷 ,鲜血染红大地。在此期间,名为“特警判官”的一群暴力机器得到确立,冷酷干练的Dredd(Karl Urban 饰)即是其中一员。他接手新人卡珊卓·安德森(Olivia Thirlby 饰)的培训评审工作,与之一同调查城市中似乎永无止境的恶性案件。                                    
                                  围绕着各种罪案,超级罪恶女头目“马-马”(Lena Headey 饰)浮出水面,成为这对特警搭档面前最大的对手……
  1. ##### MediaInfo ######
  2. General
  3. Unique ID                                : 294785381460077684078347445793946005911 (0xDDC5996DD510FC834BC7541D37D2F197)
  4. Complete name                            : Dredd.2012.BluRay.1080p.x265.10bit.2Audio-MiniHD.mkv
  5. Format                                   : Matroska
  6. Format version                           : Version 4
  7. File size                                : 6.03 GiB
  8. Duration                                 : 1 h 35 min
  9. Overall bit rate                         : 8 999 kb/s
  10. Encoded date                             : UTC 2018-03-06 00:41:40
  11. Writing application                      : mkvmerge v21.0.0 ('Tardigrades Will Inherit The Earth') 64-bit
  12. Writing library                          : libebml v1.3.5 + libmatroska v1.4.8
  13. Video
  14. ID                                       : 1
  15. Format                                   : HEVC
  16. Format/Info                              : High Efficiency Video Coding
  17. Format profile                           : Main 10@L4@Main
  18. Codec ID                                 : V_MPEGH/ISO/HEVC
  19. Duration                                 : 1 h 35 min
  20. Bit rate                                 : 8 305 kb/s
  21. Width                                    : 1 920 pixels
  22. Height                                   : 800 pixels
  23. Display aspect ratio                     : 2.40:1
  24. Frame rate mode                          : Constant
  25. Frame rate                               : 23.976 (24000/1001/53354) FPS
  26. Color space                              : YUV
  27. Chroma subsampling                       : 4:2:0
  28. Bit depth                                : 10 bits
  29. Bits/(Pixel*Frame)                       : 0.226
  30. Stream size                              : 5.56 GiB (92%)
  31. Writing library                          : x265 2.7+1-2aa737a99f51:[Windows][GCC 7.3.0][64 bit] 10bit
  32. Encoding settings                        : cpuid=533541173503 / frame-threads=3 / numa-pools=8 / wpp / no-pmode / no-pme / no-psnr / no-ssim / log-level=2 / input-csp=1 / input-res=1920x800 / interlace=0 / total-frames=137905 / level-idc=0 / high-tier=1 / uhd-bd=0 / ref=5 / no-allow-non-conformance / no-repeat-headers / annexb / no-aud / no-hrd / info / hash=0 / no-temporal-layers / no-open-gop / min-keyint=1 / keyint=360 / gop-lookahead=0 / bframes=8 / b-adapt=2 / b-pyramid / bframe-bias=0 / rc-lookahead=60 / lookahead-slices=4 / NTMzNTQ=uuDQuD2mJt9fsCf / scenecut=40 / radl=0 / no-intra-refresh / ctu=32 / min-cu-size=8 / rect / no-amp / max-tu-size=16 / tu-inter-depth=2 / tu-intra-depth=2 / limit-tu=4 / rdoq-level=1 / dynamic-rd=0.00 / ssim-rd / signhide / no-tskip / nr-intra=0 / nr-inter=0 / no-constrained-intra / no-strong-intra-smoothing / max-merge=3 / limit-refs=2 / limit-modes / me=3 / subme=5 / merange=25 / temporal-mvp / weightp / weightb / no-analyze-src-pics / deblock=-1:-1 / no-sao / no-sao-non-deblock / rd=4 / no-early-skip / rskip / no-fast-intra / no-tskip-fast / no-cu-lossless / b-intra / no-splitrd-skip / rdpenalty=1 / psy-rd=0.00 / psy-rdoq=5.00 / no-rd-refine / no-lossless / cbqpoffs=-2 / crqpoffs=-2 / rc=crf / crf=19.0 / qcomp=0.70 / qpstep=4 / stats-write=0 / stats-read=0 / ipratio=1.40 / pbratio=1.30 / aq-mode=2 / aq-strength=0.80 / cutree / zone-count=0 / no-strict-cbr / qg-size=16 / no-rc-grain / qpmax=69 / qpmin=0 / no-const-vbv / sar=1 / overscan=0 / videoformat=5 / range=0 / colorprim=1 / transfer=2 / colormatrix=2 / chromaloc=0 / display-window=0 / max-cll=0,0 / min-luma=0 / max-luma=1023 / log2-max-poc-lsb=8 / vui-timing-info / vui-hrd-info / slices=1 / no-opt-qp-pps / no-opt-ref-list-length-pps / no-multi-pass-opt-rps / scenecut-bias=0.05 / no-opt-cu-delta-qp / no-aq-motion / no-hdr / no-hdr-opt / no-dhdr10-opt / analysis-reuse-level=5 / scale-factor=0 / refine-intra=0 / refine-inter=0 / refine-mv=0 / no-limit-sao / ctu-info=0 / no-lowpass-dct / refine-mv-type=0 / copy-pic=1
  33. Default                                  : Yes
  34. Forced                                   : No
  35. Color range                              : Limited
  36. Color primaries                          : BT.709
  37. Audio #1
  38. ID                                       : 2
  39. Format                                   : AC-3
  40. Format/Info                              : Audio Coding 3
  41. Commercial name                          : Dolby Digital
  42. Codec ID                                 : A_AC3
  43. Duration                                 : 1 h 35 min
  44. Bit rate mode                            : Constant
  45. Bit rate                                 : 224 kb/s
  46. Channel(s)                               : 2 channels
  47. Channel layout                           : L R
  48. Sampling rate                            : 48.0 kHz
  49. Frame rate                               : 31.250 FPS (1536 SPF)
  50. Compression mode                         : Lossy
  51. Stream size                              : 154 MiB (2%)
  52. Language                                 : English
  53. Service kind                             : Complete Main
  54. Default                                  : Yes
  55. Forced                                   : Yes
  56. Audio #2
  57. ID                                       : 3
  58. Format                                   : AC-3
  59. Format/Info                              : Audio Coding 3
  60. Commercial name                          : Dolby Digital
  61. Codec ID                                 : A_AC3
  62. Duration                                 : 1 h 35 min
  63. Bit rate mode                            : Constant
  64. Bit rate                                 : 448 kb/s
  65. Channel(s)                               : 6 channels
  66. Channel layout                           : L R C LFE Ls Rs
  67. Sampling rate                            : 48.0 kHz
  68. Frame rate                               : 31.250 FPS (1536 SPF)
  69. Compression mode                         : Lossy
  70. Stream size                              : 307 MiB (5%)
  71. Language                                 : Chinese
  72. Service kind                             : Complete Main
  73. Default                                  : No
  74. Forced                                   : No
  75. Text #1
  76. ID                                       : 4
  77. Format                                   : PGS
  78. Muxing mode                              : zlib
  79. Codec ID                                 : S_HDMV/PGS
  80. Codec ID/Info                            : Picture based subtitle format used on BDs/HD-DVDs
  81. Duration                                 : 1 h 28 min
  82. Bit rate                                 : 24.7 kb/s
  83. Count of elements                        : 1651
  84. Stream size                              : 15.6 MiB (0%)
  85. Title                                    : 简英
  86. Default                                  : Yes
  87. Forced                                   : Yes
  88. Text #2
  89. ID                                       : 5
  90. Format                                   : PGS
  91. Muxing mode                              : zlib
  92. Codec ID                                 : S_HDMV/PGS
  93. Codec ID/Info                            : Picture based subtitle format used on BDs/HD-DVDs
  94. Duration                                 : 1 h 28 min
  95. Bit rate                                 : 26.8 kb/s
  96. Count of elements                        : 1508
  97. Stream size                              : 16.9 MiB (0%)
  98. Title                                    : 英语
  99. Language                                 : English
  100. Default                                  : No
  101. Forced                                   : No
  102. Menu
  103. 00:00:00.000                             : en:Chapter 1
  104. 00:05:43.551                             : en:Chapter 2
  105. 00:08:14.660                             : en:Chapter 3
  106. 00:14:17.356                             : en:Chapter 4
  107. 00:19:42.681                             : en:Chapter 5
  108. 00:24:09.322                             : en:Chapter 6
  109. 00:27:21.056                             : en:Chapter 7
  110. 00:36:01.284                             : en:Chapter 8
  111. 00:39:49.011                             : en:Chapter 9
  112. 00:48:26.945                             : en:Chapter 10
  113. 00:54:39.651                             : en:Chapter 11
  114. 01:00:57.236                             : en:Chapter 12
  115. 01:06:30.569                             : en:Chapter 13
  116. 01:12:01.650                             : en:Chapter 14
  117. 01:20:10.263                             : en:Chapter 15
  118. 01:27:00.381                             : en:Chapter 16





此处一般会放置磁力链或种子下载链接,不过此链接需要注册会员才能看到,点击“立即注册”
磁力链下载【下载链接仅对注册会员开放,登陆后可见】
BT9527电影天堂 1、BT9527电影天堂提供的BT文件均来源于互联网抓取,只供网友学习交流、技术提升使用。
2、我们遵守BitTorrent点对点协议原则,任何版权问题请联系原资源发布商,我们不处理任何版权纠纷,谢谢!如有争议请联系邮箱:BT9527#hotmail.com(#换成@)
3、如果您发现某页面或地址有错误,请联系站长邮箱BT9527#hotmail.com(#换成@),我们会尽快处理。您的热心是对BT9527电影天堂最大的支持。
4、本站建议去正规影院观看电影以支持电影行业发展。
最新回复 (0)

你可以在 登录 or 注册 后,对此帖发表评论!

返回