与歌同行[简繁英字幕].Walk.the.Line.2005.1080p.BluRay.DTS.x265-10bit-ENTHD 8.82GB

版主小s 7天前 23

✔资源类型:暂未分类   ✔电影年份:更 早   ✔电影地区:欧美   ✔电影分类:剧情

◎标  题 与歌同行
◎译  名 弦途有你(港) / 为你钟情(台) / 一往无前
◎片  名 Walk the Line
◎年  代 2005
◎产  地 美国 / 德国
◎类  别 剧情 / 爱情 / 音乐 / 传记
◎语  言 英语 / 俄语
◎上映日期 2005-11-18(美国)
◎IMDb评分 7.8/10 (247614人评价)
◎IMDb链接 https://www.imdb.com/title/tt0358273/
◎豆瓣评分 7.7/10 (16027人评价)
◎豆瓣链接 https://movie.douban.com/subject/1422922/
◎片  长 136 分钟
◎导  演 詹姆斯·曼高德 James Mangold
◎编  剧 约翰尼·卡什 Johnny Cash
       吉尔·丹尼斯 Gill Dennis
       詹姆斯·曼高德 James Mangold
◎演  员 华金·菲尼克斯 Joaquin Phoenix
       瑞茜·威瑟斯彭 Reese Witherspoon
       金妮弗·古德温 Ginnifer Goodwin
       罗伯特·帕特里克 Robert Patrick
       达拉斯·罗伯特斯 Dallas Roberts
       丹·约翰·米勒 Dan John Miller
       拉里·巴格比 Larry Bagby
       谢尔比·林恩 Shelby Lynne
       泰勒·希尔顿 Tyler Hilton
       维龙·佩恩 Waylon Payne
       Shooter Jennings Shooter Jennings
       桑德拉·埃利斯·拉弗蒂 Sandra Ellis Lafferty
       Clay Steakley Clay Steakley
       Johnathan Rice Johnathan Rice
       Johnny Holiday Johnny Holiday
       里奇·卡尼佩 Ridge Canipe
       卢卡斯·提尔 Lucas Till
       Carly Nahon Carly Nahon
       McGhee Monteith McGhee Monteith
       Wyatt Entrekin Wyatt Entrekin
       海利·安妮·内尔森 Hailey Anne Nelson
       凯瑞斯·多西 Kerris Dorsey
       Victoria Hester Victoria Hester
        Deborah Rawlings
       詹姆斯·基彻 James Keach
       丹尼·文森 Danny Vinson
       娜塔莉.苏珊娜.加奈尔黛 Natalie Canerday
       罗达·格里菲丝 Rhoda Griffis
       J·D·埃弗摩尔 J.D. Evermore
       J.W. Williams J.W. Williams
       Shane Bowen Shane Bowen
       蒂姆·韦尔 Tim Ware
       克莱尔·格兰特 Clare Grant
        J.P. McNeely
       Glenda Pannell Glenda Pannell
        Ken Axmaker Jr.
       David Caffey David Caffey
       约翰·卡特 John Carter Cash
       亚伦·卡温顿 Aaron Covington
       戈登·德克海默 Gordon Dexheimer
       乔什·德赖弗 Josh Driver
        Jeff Droke
       杰夫·福尔克 Geoff Falk
       扬·福尔克 Jan Falk
       Gavin Lindsay Goode Gavin Lindsay Goode
       科迪·汉福德 Cody Hanford
       L. Michele Hester L. Michele Hester
        Hunter Ian
       劳里·约翰逊 Laurie Johnson
       Katie Lindsey Katie Lindsey
       Mathew Luschek Mathew Luschek
       Vince Palazola Vince Palazola
        Rich Parham
       布兰妮·肖 Brittany Shaw
       梅利莎·古德温 Melissa Goodwin
       弗兰克·霍伊·泰勒 Frank Hoyt Taylor
        Sheila Thomas
       Jim Wright Jim Wright
        R. Elkins Wright
       尼尔·帕特里克·哈里斯 Neil Patrick Harris
       Cathy Konrad Cathy Konrad
       T-本恩·本内特 T-Bone Burnett
       芬顿·帕帕迈可 Phedon Papamichael
       迈克尔·麦卡斯克 Michael McCusker
       Lisa Beach Lisa Beach
       Sarah Katzman Sarah Katzman
       Rob Simons Rob Simons
       John R. Jensen John R. Jensen
       大卫·J·博姆巴 David J. Bomba
       艾丽安·飞利浦 Arianne Phillips
       安妮·摩根 Anne Morgan
       Kathrine Gordon Kathrine Gordon
       Donna M. Premick Donna M. Premick
       洛瑞·麦考伊-贝尔 Lori McCoy-Bell
       Michelle Vittone Michelle Vittone
       罗斯玛丽C·克雷莫纳 Rosemary C. Cremona
       史蒂芬·P·邓恩 Stephen P. Dunn
       罗伯特·斯特罗姆伯格 Robert Stromberg
       朱莉娅·弗雷 Julia Frey
       Paul Graff Paul Graff

◎简  介
  约翰·卡什(杰昆·菲尼克斯 Joaquin Phoenix 饰)本是个阿肯色州乡村小子,儿时一场意外令他弟弟身故,从此他便活在父亲(罗伯特·帕特里克 Robert Patrick 饰)的谴责和嘲讽下无力翻身。爱音乐的他慢慢以乡村歌手成名,也有了自己的家庭,但外出巡演时偶然接触到毒品慢慢令他不能自拔,将他带入深渊。吸毒令妻子薇薇安(詹妮弗·古德温 Ginnifer Goodwin 饰)带着孩子离开了他,他只好去找心仪已久、但因婚姻在身无法在一起的女歌手琼·卡特(莉丝·威瑟斯彭 Reese Witherspoon 饰),后者给予他援手,帮助他戒毒,却也一次次拒绝了他的求爱。戒毒成功的卡什得以重启事业,和卡特的爱情也在两人的舞台上终成正果。
  1. ##### MediaInfo ######
  2. General
  3. Unique ID                                : 2159044446637702459785819273829434105 (0x19FD11C1AFAFCC5CD74E62BBA4E42F9)
  4. Complete name                            : Walk.the.Line.2005.1080p.BluRay.DTS.x265-10bit-ENTHD.mkv
  5. Format                                   : Matroska
  6. Format version                           : Version 4
  7. File size                                : 8.82 GiB
  8. Duration                                 : 2 h 33 min
  9. Overall bit rate                         : 8 242 kb/s
  10. Movie name                               : Walk the Line 2005 1080p BluRay DTS x265-10bit-HDS
  11. Encoded date                             : UTC 2022-06-22 11:30:36
  12. Writing application                      : mkvmerge v67.0.0 ('Under Stars') 64-bit
  13. Writing library                          : libebml v1.4.2 + libmatroska v1.6.4
  14. Video
  15. ID                                       : 1
  16. Format                                   : HEVC
  17. Format/Info                              : High Efficiency Video Coding
  18. Format profile                           : Main 10@L5.1@High
  19. Codec ID                                 : V_MPEGH/ISO/HEVC
  20. Duration                                 : 2 h 33 min
  21. Bit rate                                 : 6 680 kb/s
  22. Width                                    : 1 920 pixels
  23. Height                                   : 800 pixels
  24. Display aspect ratio                     : 2.40:1
  25. Frame rate mode                          : Constant
  26. Frame rate                               : 23.976 (24000/1001/53354) FPS
  27. Color space                              : YUV
  28. Chroma subsampling                       : 4:2:0
  29. Bit depth                                : 10 bits
  30. Bits/(Pixel*Frame)                       : 0.181
  31. Stream size                              : 7.15 GiB (81%)
  32. Title                                    : @HDSky
  33. Writing library                          : x265 - H.265/HEVC codec
  34. Default                                  : Yes
  35. Forced                                   : No
  36. Audio
  37. ID                                       : 2
  38. Format                                   : DTS
  39. Format/Info                              : Digital Theater Systems
  40. Codec ID                                 : A_DTS
  41. Duration                                 : 2 h 33 min
  42. Bit rate mode                            : Constant
  43. Bit rate                                 : 1 509 kb/s
  44. Channel(s)                               : 6 channels
  45. Channel layout                           : C L R Ls Rs LFE
  46. Sampling rate                            : 48.0 kHz
  47. Frame rate                               : 93.750 FPS (512 SPF)
  48. Bit depth                                : 24 bits
  49. Compression mode                         : Lossy
  50. Stream size                              : 1.61 GiB (18%)
  51. Title                                    : English
  52. Language                                 : English
  53. Default                                  : Yes
  54. Forced                                   : No
  55. Text #1
  56. ID                                       : 3
  57. Format                                   : PGS
  58. Muxing mode                              : zlib
  59. Codec ID                                 : S_HDMV/PGS
  60. Codec ID/Info                            : Picture based subtitle format used on BDs/HD-DVDs
  61. Duration                                 : 2 h 26 min
  62. Bit rate                                 : 35.8 kb/s
  63. Count of elements                        : 3713
  64. Stream size                              : 37.7 MiB (0%)
  65. Title                                    : ENG
  66. Language                                 : English
  67. Default                                  : Yes
  68. Forced                                   : No
  69. Text #2
  70. ID                                       : 4
  71. Format                                   : PGS
  72. Muxing mode                              : zlib
  73. Codec ID                                 : S_HDMV/PGS
  74. Codec ID/Info                            : Picture based subtitle format used on BDs/HD-DVDs
  75. Duration                                 : 2 h 27 min
  76. Bit rate                                 : 31.8 kb/s
  77. Count of elements                        : 3630
  78. Stream size                              : 33.5 MiB (0%)
  79. Title                                    : CHS
  80. Language                                 : Chinese
  81. Default                                  : Yes
  82. Forced                                   : No
  83. Text #3
  84. ID                                       : 5
  85. Format                                   : PGS
  86. Muxing mode                              : zlib
  87. Codec ID                                 : S_HDMV/PGS
  88. Codec ID/Info                            : Picture based subtitle format used on BDs/HD-DVDs
  89. Duration                                 : 2 h 27 min
  90. Bit rate                                 : 33.0 kb/s
  91. Count of elements                        : 3630
  92. Stream size                              : 34.8 MiB (0%)
  93. Title                                    : CHT
  94. Language                                 : Chinese
  95. Default                                  : Yes
  96. Forced                                   : No
  97. Menu
  98. 00:00:00.000                             : en:第 01 章
  99. 00:02:28.940                             : en:第 02 章
  100. 00:06:42.152                             : en:第 03 章
  101. 00:10:59.075                             : en:第 04 章
  102. 00:13:15.336                             : en:第 05 章
  103. 00:18:38.617                             : en:第 06 章
  104. 00:22:30.015                             : en:第 07 章
  105. 00:26:32.257                             : en:第 08 章
  106. 00:33:43.230                             : en:第 09 章
  107. 00:36:47.122                             : en:第 10 章
  108. 00:40:00.940                             : en:第 11 章
  109. 00:42:27.879                             : en:第 12 章
  110. 00:46:11.894                             : en:第 13 章
  111. 00:50:32.738                             : en:第 14 章
  112. 00:53:35.879                             : en:第 15 章
  113. 00:56:05.571                             : en:第 16 章
  114. 00:58:02.104                             : en:第 17 章
  115. 01:02:28.244                             : en:第 18 章
  116. 01:05:37.767                             : en:第 19 章
  117. 01:09:29.540                             : en:第 20 章
  118. 01:14:09.320                             : en:第 21 章
  119. 01:17:26.350                             : en:第 22 章
  120. 01:19:08.953                             : en:第 23 章
  121. 01:23:07.649                             : en:第 24 章
  122. 01:27:34.958                             : en:第 25 章
  123. 01:33:23.640                             : en:第 26 章
  124. 01:39:03.396                             : en:第 27 章
  125. 01:43:57.273                             : en:第 28 章
  126. 01:46:55.909                             : en:第 29 章
  127. 01:49:20.763                             : en:第 30 章
  128. 01:52:11.892                             : en:第 31 章
  129. 01:55:24.918                             : en:第 32 章
  130. 02:02:20.333                             : en:第 33 章
  131. 02:04:34.008                             : en:第 34 章
  132. 02:08:59.857                             : en:第 35 章
  133. 02:12:34.905                             : en:第 36 章
  134. 02:16:53.831                             : en:第 37 章
  135. 02:20:17.993                             : en:第 38 章
  136. 02:26:35.996                             : en:第 39 章
  137. 02:27:39.601                             : en:第 40 章





此处一般会放置磁力链或种子下载链接,不过此链接需要注册会员才能看到,点击“立即注册”
磁力链下载【下载链接仅对注册会员开放,登陆后可见】
BT9527电影天堂 1、BT9527电影天堂提供的BT文件均来源于互联网抓取,只供网友学习交流、技术提升使用。
2、我们遵守BitTorrent点对点协议原则,任何版权问题请联系原资源发布商,我们不处理任何版权纠纷,谢谢!如有争议请联系邮箱:BT9527#hotmail.com(#换成@)
3、如果您发现某页面或地址有错误,请联系站长邮箱BT9527#hotmail.com(#换成@),我们会尽快处理。您的热心是对BT9527电影天堂最大的支持。
4、本站建议去正规影院观看电影以支持电影行业发展。
最新回复 (0)

你可以在 登录 or 注册 后,对此帖发表评论!

返回
发新帖