静水城[国粤英多音轨/简繁英字幕].Stillwater.2021.1080p.BluRay.DTS.3Audio.x265-10bit-ENTHD 9.42GB

版主小s 1天前 23

✔资源类型:暂未分类   ✔电影年份:2021   ✔电影地区:欧美   ✔电影分类:剧情

◎标  题 静水城
◎译  名 静水 / 斯蒂尔沃特 / 止水
◎片  名 Stillwater
◎年  代 2021
◎产  地 美国
◎类  别 剧情 / 惊悚 / 犯罪
◎语  言 英语
◎上映日期 2021-07-08(戛纳电影节) / 2021-07-30(美国)
◎IMDb评分 6.6/10 (28638人评价)
◎IMDb链接 https://www.imdb.com/title/tt10696896/
◎豆瓣评分 7.1/10 (9482人评价)
◎豆瓣链接 https://movie.douban.com/subject/34614665/
◎片  长 139分钟
◎导  演 汤姆·麦卡锡 Tom McCarthy
◎编  剧 汤姆·麦卡锡 Tom McCarthy
       马库斯·辛奇 Marcus Hinchey
       托马斯·彼得葛恩 Thomas Bidegain
       诺亚·德勃雷 Noé Debré
◎演  员 马特·达蒙 Matt Damon
       卡米尔·科坦 Camille Cottin
       阿比盖尔·布雷斯林 Abigail Breslin
       利鲁·肖沃 Lilou Siauvaud
       狄安娜·杜纳甘 Deanna Dunagan
       伊迪尔·阿祖格利 Idir Azougli
       安娜·勒尼 Anne Le Ny
       茂萨·马斯克里 Moussa Maaskri
       伊莎贝尔·塔纳克 Isabelle Tanakil
       奈德拉·阿亚迪 Naidra Ayadi
       吉尔伯特·特拉尼亚 Gilbert Traina
       威廉·纳迪兰 William Nadylam
       沙扎德·拉蒂夫 Shazad Latif
       米歇尔‧邦波 Michel Bompoil
       莎拉·布鲁克斯 Sarah Brooks
       埃里克·斯达克 Eric Starkey
       罗伯特·皮特斯 Robert Peters
       Olivier Cruveiller Olivier Cruveiller

◎标  签 剧情 / 美国 / 犯罪 / 2021 / 悬疑 / 欧美 / 电影 / 惊悚

◎简  介
  影片围绕一个来自俄克拉荷马州的美国石油钻井平台钻工比尔(达蒙饰)展开。他不得不前往马赛,拜访他久未谋面却锒铛入狱的女儿(布雷斯林饰),他的女儿坚称并没有犯下谋杀罪。面对语言的障碍、文化的差异,以及复杂的法律制度,比尔决意孤注一掷拯救他的女儿。而在这个过程中,他与一位当地的女性和她的小女儿建立了友谊,也开始了个人的探索之旅,并获得了更大的归属感。
  1. ##### MediaInfo ######
  2. General
  3. Unique ID                                : 139163980228700499339010558591123441342 (0x68B201F6AD8DE952CCCAD5610889C6BE)
  4. Complete name                            : Stillwater.2021.1080p.BluRay.DTS.3Audio.x265-10bit-ENTHD.mkv
  5. Format                                   : Matroska
  6. Format version                           : Version 4
  7. File size                                : 9.41 GiB
  8. Duration                                 : 2 h 18 min
  9. Overall bit rate                         : 9 698 kb/s
  10. Movie name                               : Stillwater 2021 1080p BluRay DTS 3Audio x265-10bit-HDS
  11. Encoded date                             : UTC 2022-06-23 01:36:24
  12. Writing application                      : mkvmerge v67.0.0 ('Under Stars') 64-bit
  13. Writing library                          : libebml v1.4.2 + libmatroska v1.6.4
  14. Video
  15. ID                                       : 1
  16. Format                                   : HEVC
  17. Format/Info                              : High Efficiency Video Coding
  18. Format profile                           : Main 10@L5.1@High
  19. Codec ID                                 : V_MPEGH/ISO/HEVC
  20. Duration                                 : 2 h 18 min
  21. Bit rate                                 : 7 771 kb/s
  22. Width                                    : 1 920 pixels
  23. Height                                   : 1 040 pixels
  24. Display aspect ratio                     : 1.85:1
  25. Frame rate mode                          : Constant
  26. Frame rate                               : 23.976 (24000/1001/53354) FPS
  27. Color space                              : YUV
  28. Chroma subsampling                       : 4:2:0
  29. Bit depth                                : 10 bits
  30. Bits/(Pixel*Frame)                       : 0.162
  31. Stream size                              : 7.54 GiB (80%)
  32. Title                                    : meyu@HDSky
  33. Writing library                          : x265 - H.265/HEVC codec
  34. Default                                  : Yes
  35. Forced                                   : No
  36. Audio #1
  37. ID                                       : 2
  38. Format                                   : DTS
  39. Format/Info                              : Digital Theater Systems
  40. Codec ID                                 : A_DTS
  41. Duration                                 : 2 h 18 min
  42. Bit rate mode                            : Constant
  43. Bit rate                                 : 1 509 kb/s
  44. Channel(s)                               : 6 channels
  45. Channel layout                           : C L R Ls Rs LFE
  46. Sampling rate                            : 48.0 kHz
  47. Frame rate                               : 93.750 FPS (512 SPF)
  48. Bit depth                                : 24 bits
  49. Compression mode                         : Lossy
  50. Stream size                              : 1.46 GiB (16%)
  51. Title                                    : English
  52. Language                                 : English
  53. Default                                  : Yes
  54. Forced                                   : No
  55. Audio #2
  56. ID                                       : 3
  57. Format                                   : AC-3
  58. Format/Info                              : Audio Coding 3
  59. Commercial name                          : Dolby Digital
  60. Codec ID                                 : A_AC3
  61. Duration                                 : 2 h 18 min
  62. Bit rate mode                            : Constant
  63. Bit rate                                 : 192 kb/s
  64. Channel(s)                               : 2 channels
  65. Channel layout                           : L R
  66. Sampling rate                            : 48.0 kHz
  67. Frame rate                               : 31.250 FPS (1536 SPF)
  68. Compression mode                         : Lossy
  69. Stream size                              : 191 MiB (2%)
  70. Title                                    : Mandarin
  71. Language                                 : Chinese
  72. Service kind                             : Complete Main
  73. Default                                  : Yes
  74. Forced                                   : No
  75. Audio #3
  76. ID                                       : 4
  77. Format                                   : AC-3
  78. Format/Info                              : Audio Coding 3
  79. Commercial name                          : Dolby Digital
  80. Codec ID                                 : A_AC3
  81. Duration                                 : 2 h 18 min
  82. Bit rate mode                            : Constant
  83. Bit rate                                 : 192 kb/s
  84. Channel(s)                               : 2 channels
  85. Channel layout                           : L R
  86. Sampling rate                            : 48.0 kHz
  87. Frame rate                               : 31.250 FPS (1536 SPF)
  88. Compression mode                         : Lossy
  89. Stream size                              : 191 MiB (2%)
  90. Title                                    : Cantonese
  91. Language                                 : Chinese
  92. Service kind                             : Complete Main
  93. Default                                  : Yes
  94. Forced                                   : No
  95. Text #1
  96. ID                                       : 5
  97. Format                                   : PGS
  98. Muxing mode                              : zlib
  99. Codec ID                                 : S_HDMV/PGS
  100. Codec ID/Info                            : Picture based subtitle format used on BDs/HD-DVDs
  101. Duration                                 : 2 h 10 min
  102. Bit rate                                 : 21.0 kb/s
  103. Count of elements                        : 3618
  104. Stream size                              : 19.6 MiB (0%)
  105. Title                                    : CHS
  106. Language                                 : Chinese
  107. Default                                  : Yes
  108. Forced                                   : No
  109. Text #2
  110. ID                                       : 6
  111. Format                                   : PGS
  112. Muxing mode                              : zlib
  113. Codec ID                                 : S_HDMV/PGS
  114. Codec ID/Info                            : Picture based subtitle format used on BDs/HD-DVDs
  115. Duration                                 : 2 h 10 min
  116. Bit rate                                 : 21.4 kb/s
  117. Count of elements                        : 3618
  118. Stream size                              : 20.0 MiB (0%)
  119. Title                                    : CHT
  120. Language                                 : Chinese
  121. Default                                  : Yes
  122. Forced                                   : No
  123. Text #3
  124. ID                                       : 7
  125. Format                                   : PGS
  126. Muxing mode                              : zlib
  127. Codec ID                                 : S_HDMV/PGS
  128. Codec ID/Info                            : Picture based subtitle format used on BDs/HD-DVDs
  129. Duration                                 : 2 h 11 min
  130. Bit rate                                 : 32.4 kb/s
  131. Count of elements                        : 3120
  132. Stream size                              : 30.4 MiB (0%)
  133. Title                                    : ENG
  134. Language                                 : English
  135. Default                                  : Yes
  136. Forced                                   : No
  137. Menu
  138. 00:00:00.000                             : en:第 01 章
  139. 00:07:50.428                             : en:第 02 章
  140. 00:12:56.943                             : en:第 03 章
  141. 00:22:17.002                             : en:第 04 章
  142. 00:32:23.859                             : en:第 05 章
  143. 00:37:45.555                             : en:第 06 章
  144. 00:44:02.390                             : en:第 07 章
  145. 00:49:05.526                             : en:第 08 章
  146. 00:57:51.051                             : en:第 09 章
  147. 01:03:19.212                             : en:第 10 章
  148. 01:08:21.723                             : en:第 11 章
  149. 01:16:05.936                             : en:第 12 章
  150. 01:25:03.974                             : en:第 13 章
  151. 01:32:16.281                             : en:第 14 章
  152. 01:39:18.911                             : en:第 15 章
  153. 01:45:27.196                             : en:第 16 章
  154. 01:51:43.697                             : en:第 17 章
  155. 02:00:57.125                             : en:第 18 章
  156. 02:05:31.399                             : en:第 19 章
  157. 02:12:08.504                             : en:第 20 章





此处一般会放置磁力链或种子下载链接,不过此链接需要注册会员才能看到,点击“立即注册”
磁力链下载【下载链接仅对注册会员开放,登陆后可见】
BT9527电影天堂 1、BT9527电影天堂提供的BT文件均来源于互联网抓取,只供网友学习交流、技术提升使用。
2、我们遵守BitTorrent点对点协议原则,任何版权问题请联系原资源发布商,我们不处理任何版权纠纷,谢谢!如有争议请联系邮箱:BT9527#hotmail.com(#换成@)
3、如果您发现某页面或地址有错误,请联系站长邮箱BT9527#hotmail.com(#换成@),我们会尽快处理。您的热心是对BT9527电影天堂最大的支持。
4、本站建议去正规影院观看电影以支持电影行业发展。
最新回复 (0)

你可以在 登录 or 注册 后,对此帖发表评论!

返回
发新帖