冲出宁静号[中文字幕].Serenity.2005.2160p.HDR.UHD.BluRay.DTS-HD.MA.7.1.x265-10bit-ENTHD 18.11GB

版主小s 1天前 16

✔资源类型:BD-4K   ✔电影年份:更 早   ✔电影地区:欧美   ✔电影分类:动作

◎标  题 冲出宁静号
◎译  名 萤火虫 / 宁静号
◎片  名 Serenity
◎年  代 2005
◎产  地 美国
◎类  别 动作 / 科幻 / 冒险
◎语  言 英语 / 汉语普通话
◎上映日期 2005-09-30(美国)
◎IMDb评分 7.8/10 (290285人评价)
◎IMDb链接 https://www.imdb.com/title/tt0379786/
◎豆瓣评分 7.2/10 (25868人评价)
◎豆瓣链接 https://movie.douban.com/subject/1309068/
◎片  长 119 分钟
◎导  演 乔斯·韦登 Joss Whedon
◎编  剧 乔斯·韦登 Joss Whedon
◎演  员 内森·菲利安 Nathan Fillion
       吉娜·托瑞斯 Gina Torres
       艾伦·图代克 Alan Tudyk
       莫蕾娜·巴卡琳 Morena Baccarin
       亚当·鲍德温 Adam Baldwin
       朱尔·斯泰特 Jewel Staite
       莎莫·格劳 Summer Glau
       埃里克·维纳 Erik Weiner
       塔玛拉·泰勒 Tamara Taylor
       罗恩·格拉斯 Ron Glass
       科林·帕特里克·林奇 Colin Patrick Lynch
       切瓦特·埃加福 Chiwetel Ejiofor
       迈克尔·希区柯克 Michael Hitchcock
       亨特安斯利卫彦 Hunter Ansley Wryn
       大卫·克朗姆霍茨 David Krumholtz
       Joshua Michael Kwiat Joshua Michael Kwiat
       斯考特金沃斯 Scott Kinworthy
       特里斯坦·贾里德 Tristan Jarred
       安东尼鲁菲诺 Antonio Rufino
       皮特·詹姆斯·史密斯 Peter James Smith
       特雷尔·蒂尔福德 Terrell Tilford
       格伦·豪尔顿 Glenn Howerton
       德梅特拉雷文 Demetra Raven
       洛根·奥布莱恩 Logan O'Brien
       瑞安泰治 Ryan Tasz
       肖恩·马希尔 Sean Maher
       玛丽麦克琳 Marley McClean
       嘉莉·克莱恩 Carrie 'CeCe' Cline
       莎拉·保罗森 Sarah Paulson

◎标  签 科幻 / 美国 / 动作 / 冲出宁静号 / 美国电影 / 2005 / 电影 / 悬疑

◎简  介
    遥远的未来,人类离开不堪负荷的地球,在新的星系延续了文明,那些星系中心的星球组成联盟,不断尝试将偏远的蛮荒星球纳入势力范围。少女瑞娃(Summer Glau 饰)在联盟的这一政策下被改造成为感觉敏锐、身手矫健的战斗机器。瑞娃之兄西蒙将其救出,带到了前抵抗组织成员——马尔 (Nathan Fillion 饰)的运输飞船——“宁静号”上。另一方面,联盟议会为防止瑞娃可能掌握的情报外泄,派出手段毒辣的特使追索不休。马尔一行因瑞娃的战斗模式被联盟唤醒而多次陷入险境,船员们不得不在毫无理性的宇宙掠夺者和联盟的阻击中艰难前往边缘之地——摩兰达,在那里,埋藏着一段联盟不愿示人的罪恶往事……                                    
                                  本片为电视剧集《Firefly》的后续和结局,获2006年土星奖最佳女配角等专业褒奖。
  1. ##### MediaInfo ######
  2. General
  3. Unique ID                                : 83315827311080113730486608296286689208 (0x3EAE0B6F3ACD8567C1A777C854B517B8)
  4. Complete name                            : Serenity.2005.2160p.HDR.UHD.BluRay.DTS-HD.MA.7.1.x265-10bit-ENTHD.mkv
  5. Format                                   : Matroska
  6. Format version                           : Version 4
  7. File size                                : 18.1 GiB
  8. Duration                                 : 1 h 58 min
  9. Overall bit rate mode                    : Variable
  10. Overall bit rate                         : 21.8 Mb/s
  11. Movie name                               : Serenity 2005 2160p HDR UHD BluRay DTS-HD MA 7.1 x265-10bit-HDS
  12. Encoded date                             : UTC 2022-06-23 01:30:24
  13. Writing application                      : mkvmerge v67.0.0 ('Under Stars') 64-bit
  14. Writing library                          : libebml v1.4.2 + libmatroska v1.6.4
  15. Video
  16. ID                                       : 1
  17. Format                                   : HEVC
  18. Format/Info                              : High Efficiency Video Coding
  19. Format profile                           : Main 10@L6.1@High
  20. HDR format                               : SMPTE ST 2086, HDR10 compatible
  21. Codec ID                                 : V_MPEGH/ISO/HEVC
  22. Duration                                 : 1 h 58 min
  23. Bit rate                                 : 16.2 Mb/s
  24. Width                                    : 3 840 pixels
  25. Height                                   : 1 636 pixels
  26. Display aspect ratio                     : 2.35:1
  27. Frame rate mode                          : Constant
  28. Frame rate                               : 23.976 (24000/1001/53354) FPS
  29. Color space                              : YUV
  30. Chroma subsampling                       : 4:2:0
  31. Bit depth                                : 10 bits
  32. Bits/(Pixel*Frame)                       : 0.108
  33. Stream size                              : 13.5 GiB (74%)
  34. Title                                    : @HDSky
  35. Writing library                          : x265 - H.265/HEVC codec
  36. Default                                  : Yes
  37. Forced                                   : No
  38. Color range                              : Limited
  39. Color primaries                          : BT.2020
  40. Transfer characteristics                 : PQ
  41. Matrix coefficients                      : BT.2020 non-constant
  42. Mastering display color primaries        : Display P3
  43. Mastering display luminance              : min: 0.0050 cd/m2, max: 1000 cd/m2
  44. Maximum Content Light Level              : 996 cd/m2
  45. Maximum Frame-Average Light Level        : 263 cd/m2
  46. Audio
  47. ID                                       : 2
  48. Format                                   : DTS XLL X
  49. Format/Info                              : Digital Theater Systems
  50. Commercial name                          : DTS-HD Master Audio
  51. Codec ID                                 : A_DTS
  52. Duration                                 : 1 h 58 min
  53. Bit rate mode                            : Variable
  54. Bit rate                                 : 5 476 kb/s
  55. Channel(s)                               : 8 channels
  56. Channel(s)_Original                      : Object Based
  57. ChannelLayout_Original                   : Object Based
  58. Sampling rate                            : 48.0 kHz
  59. Frame rate                               : 93.750 FPS (512 SPF)
  60. Bit depth                                : 24 bits
  61. Stream size                              : 4.55 GiB (25%)
  62. Title                                    : English
  63. Language                                 : English
  64. Default                                  : Yes
  65. Forced                                   : No
  66. Text #1
  67. ID                                       : 3
  68. Format                                   : PGS
  69. Muxing mode                              : zlib
  70. Codec ID                                 : S_HDMV/PGS
  71. Codec ID/Info                            : Picture based subtitle format used on BDs/HD-DVDs
  72. Duration                                 : 1 h 52 min
  73. Bit rate                                 : 25.0 kb/s
  74. Count of elements                        : 2682
  75. Stream size                              : 20.2 MiB (0%)
  76. Title                                    : CHS
  77. Language                                 : Chinese
  78. Default                                  : Yes
  79. Forced                                   : No
  80. Text #2
  81. ID                                       : 4
  82. Format                                   : PGS
  83. Muxing mode                              : zlib
  84. Codec ID                                 : S_HDMV/PGS
  85. Codec ID/Info                            : Picture based subtitle format used on BDs/HD-DVDs
  86. Duration                                 : 1 h 52 min
  87. Bit rate                                 : 25.8 kb/s
  88. Count of elements                        : 2682
  89. Stream size                              : 20.8 MiB (0%)
  90. Title                                    : CHT
  91. Language                                 : Chinese
  92. Default                                  : Yes
  93. Forced                                   : No
  94. Text #3
  95. ID                                       : 5
  96. Format                                   : PGS
  97. Muxing mode                              : zlib
  98. Codec ID                                 : S_HDMV/PGS
  99. Codec ID/Info                            : Picture based subtitle format used on BDs/HD-DVDs
  100. Duration                                 : 1 h 52 min
  101. Bit rate                                 : 23.9 kb/s
  102. Count of elements                        : 2012
  103. Stream size                              : 19.3 MiB (0%)
  104. Title                                    : CHS
  105. Language                                 : Chinese
  106. Default                                  : Yes
  107. Forced                                   : No
  108. Text #4
  109. ID                                       : 6
  110. Format                                   : PGS
  111. Muxing mode                              : zlib
  112. Codec ID                                 : S_HDMV/PGS
  113. Codec ID/Info                            : Picture based subtitle format used on BDs/HD-DVDs
  114. Duration                                 : 1 h 52 min
  115. Bit rate                                 : 24.2 kb/s
  116. Count of elements                        : 2012
  117. Stream size                              : 19.5 MiB (0%)
  118. Title                                    : CHT
  119. Language                                 : Chinese
  120. Default                                  : Yes
  121. Forced                                   : No
  122. Text #5
  123. ID                                       : 7
  124. Format                                   : PGS
  125. Muxing mode                              : zlib
  126. Codec ID                                 : S_HDMV/PGS
  127. Codec ID/Info                            : Picture based subtitle format used on BDs/HD-DVDs
  128. Duration                                 : 1 h 52 min
  129. Bit rate                                 : 43.9 kb/s
  130. Count of elements                        : 2013
  131. Stream size                              : 35.5 MiB (0%)
  132. Title                                    : CHS&ENG
  133. Language                                 : Chinese
  134. Default                                  : Yes
  135. Forced                                   : No
  136. Text #6
  137. ID                                       : 8
  138. Format                                   : PGS
  139. Muxing mode                              : zlib
  140. Codec ID                                 : S_HDMV/PGS
  141. Codec ID/Info                            : Picture based subtitle format used on BDs/HD-DVDs
  142. Duration                                 : 1 h 52 min
  143. Bit rate                                 : 44.3 kb/s
  144. Count of elements                        : 2013
  145. Stream size                              : 35.7 MiB (0%)
  146. Title                                    : CHT&ENG
  147. Language                                 : Chinese
  148. Default                                  : Yes
  149. Forced                                   : No
  150. Menu
  151. 00:00:00.000                             : en:第 01 章
  152. 00:05:00.759                             : en:第 02 章
  153. 00:09:30.945                             : en:第 03 章
  154. 00:14:49.097                             : en:第 04 章
  155. 00:19:49.855                             : en:第 05 章
  156. 00:29:13.001                             : en:第 06 章
  157. 00:36:18.259                             : en:第 07 章
  158. 00:44:09.272                             : en:第 08 章
  159. 00:49:54.700                             : en:第 09 章
  160. 00:55:44.049                             : en:第 10 章
  161. 00:59:28.315                             : en:第 11 章
  162. 01:04:45.256                             : en:第 12 章
  163. 01:09:13.733                             : en:第 13 章
  164. 01:13:33.784                             : en:第 14 章
  165. 01:22:38.579                             : en:第 15 章
  166. 01:30:18.580                             : en:第 16 章
  167. 01:36:57.478                             : en:第 17 章
  168. 01:45:56.225                             : en:第 18 章
  169. 01:47:37.117                             : en:第 19 章
  170. 01:53:21.670                             : en:第 20 章





此处一般会放置磁力链或种子下载链接,不过此链接需要注册会员才能看到,点击“立即注册”
磁力链下载【下载链接仅对注册会员开放,登陆后可见】
BT9527电影天堂 1、BT9527电影天堂提供的BT文件均来源于互联网抓取,只供网友学习交流、技术提升使用。
2、我们遵守BitTorrent点对点协议原则,任何版权问题请联系原资源发布商,我们不处理任何版权纠纷,谢谢!如有争议请联系邮箱:BT9527#hotmail.com(#换成@)
3、如果您发现某页面或地址有错误,请联系站长邮箱BT9527#hotmail.com(#换成@),我们会尽快处理。您的热心是对BT9527电影天堂最大的支持。
4、本站建议去正规影院观看电影以支持电影行业发展。
最新回复 (0)

你可以在 登录 or 注册 后,对此帖发表评论!

返回
发新帖