王牌保镖2[简繁英字幕].Hitmans.Wifes.Bodyguard.2021.Extended.UHD.BluRay.2160p.DTS-HD.MA.7.1.x265.10bit.HDR-ALT 21.69GB

版主小s 3月前 175

✔资源类型:BD-4K   ✔电影年份:2021   ✔电影地区:欧美   ✔电影分类:喜剧

◎标  题 王牌保镖2
◎译  名 杀手妻子的保镖 / 保镖救杀手2(港) / The Hitman's Bodyguard 2
◎片  名 The Hitman's Wife's Bodyguard
◎年  代 2021
◎产  地 美国 / 英国
◎类  别 喜剧 / 动作 / 犯罪
◎语  言 英语
◎上映日期 2021-06-16(美国)
◎IMDb评分 6.1/10 (63047人评价)
◎IMDb链接 https://www.imdb.com/title/tt8385148/
◎豆瓣评分 6.3/10 (20250人评价)
◎豆瓣链接 https://movie.douban.com/subject/30216729/
◎片  长 116分钟
◎导  演 帕特里克·休斯 Patrick Hughes
◎编  剧 汤姆·奥康纳 Tom O'Connor
       布兰登·墨菲 Brandon Murphy
       菲利普·墨菲 Phillip Murphy
◎演  员 瑞安·雷诺兹 Ryan Reynolds
       塞缪尔·杰克逊 Samuel L. Jackson
       萨尔玛·海耶克 Salma Hayek
       弗兰克·格里罗 Frank Grillo
       理查德·E·格兰特 Richard E. Grant
       安东尼奥·班德拉斯 Antonio Banderas
       摩根·弗里曼 Morgan Freeman
       斯图尔特·亚历山大 Stewart Alexander
       早乙女津和雪 Tsuwayuki Saotome
       丽贝卡·弗朗特 Rebecca Front
       诺杰·赫拉尔 Noortje Herlaar
       迈克尔·戈尔 Michael Gor
       乔治·格伦 Georgie Glen
       巴里·阿茨玛 Barry Atsma
       蒂内·朱斯特拉 Tine Joustra
       加里·奥德曼 Gary Oldman
       玛丽安娜·维基尔斯卡 Mariana Vekilska
       布莱恩·卡斯佩 Brian Caspe
       丹柯·约尔丹诺夫 Danko Jordanov
       西蒙·安德鲁 Simón Andreu
       塞尔吉奥·托里科 Sergio Torrico
       布莱克·瑞特森 Blake Ritson
       汤姆·霍珀 Tom Hopper
       加布里埃拉·赖特 Gabriella Wright
       卡罗琳·古多尔 Caroline Goodall
       爱丽丝·麦克米兰 Alice McMillan
       伊万·朱里奇 Ivan Djuricic
       米尔托斯·耶罗勒曼 Miltos Yerolemou
       帕特里克·休斯 Patrick Hughes
       德拉甘·米恰诺维奇 Dragan Mićanović
       托米·梅 Tomi May
       乔纳斯·塔金顿 Jonas Talkington
       小恩佐·斯奎利诺 Enzo Squillino Jr.
       吉欧里奥·贝鲁蒂 Giulio Berruti
       鲁道夫·科萨托 Rodolfo Corsato
       卡蒙提普·克里希·阿什顿 Kamontip Krissy Ashton
       贝卡·宝陵 Bekka Bowling
       贝恩·科拉科 Bern Collaço
       内森·库珀 Nathan Cooper
       罗杰·金 Roger King
       阿德南·昆迪 Adnan Kundi
       马雷克·里奇滕博格 Marek Lichtenberg
       希滕·珀泰尔 Hiten Patel
       佩特拉·武凯利奇 Petra Vukelic
       Harry Taurasi Harry Taurasi
       Amar Bukvic Amar Bukvic
       Csilla Barath-Bastaic Csilla Barath-Bastaic
       James Maclurcan James Maclurcan
       克里斯蒂娜·坎贝尔 Christa Campbell
       博兹·大卫逊 Boaz Davidson
       瓦伦丁·迪米特洛夫 Valentin Dimitrov
       艾威·勒纳 Avi Lerner
       海蒂·乔·马克尔 Heidi Jo Markel
       艾特利·奥瓦逊 Atli Örvarsson
       特里·斯塔塞 Terry Stacey
       妮科尔·亨布拉 Nicholle Hembra

◎标  签 喜剧 / 动作 / 美国 / 犯罪 / 2021 / 电影 / 欧美 / 電影

◎简  介
  这对世上最要命的混搭-——保镖迈克尔·布莱斯和杀手大流士·金凯,再次执行一项要命任务。                                    
                                大流士反复无常更胜以往的妻子——臭名昭著的国际诈骗家索尼娅·金凯迫使布莱斯出山。                                    
                                布莱斯被这俩最危险的保护对象逼得走投无路,三人在一个全球级的阴谋中陷入困境,很快还发现他们是一个大疯子复仇欧洲的唯一障碍。                                    
                                摩根·弗里曼也加入了这场有趣而又致命的乱局,他饰演的是——嗯,不得不看。
  1. ##### MediaInfo ######
  2. General
  3. Unique ID                                : 139251194370529292721089694067219616909 (0x68C2CDF3E86B23AD471A29074739D48D)
  4. Complete name                            : Hitmans.Wifes.Bodyguard.2021.Extended.UHD.BluRay.2160p.DTS-HD.MA.7.1.x265.10bit.HDR-ALT.mkv
  5. Format                                   : Matroska
  6. Format version                           : Version 4
  7. File size                                : 21.7 GiB
  8. Duration                                 : 1 h 56 min
  9. Overall bit rate mode                    : Variable
  10. Overall bit rate                         : 26.6 Mb/s
  11. Encoded date                             : UTC 2022-06-22 11:14:20
  12. Writing application                      : mkvmerge v49.0.0 ('Sick Of Losing Soulmates') 64-bit
  13. Writing library                          : libebml v1.4.0 + libmatroska v1.6.1
  14. Video
  15. ID                                       : 1
  16. Format                                   : HEVC
  17. Format/Info                              : High Efficiency Video Coding
  18. Format profile                           : Main 10@L5.1@High
  19. HDR format                               : SMPTE ST 2086, HDR10 compatible
  20. Codec ID                                 : V_MPEGH/ISO/HEVC
  21. Duration                                 : 1 h 56 min
  22. Bit rate                                 : 21.4 Mb/s
  23. Width                                    : 3 840 pixels
  24. Height                                   : 1 606 pixels
  25. Display aspect ratio                     : 2.40:1
  26. Frame rate mode                          : Constant
  27. Frame rate                               : 23.976 (24000/1001/53354) FPS
  28. Color space                              : YUV
  29. Chroma subsampling                       : 4:2:0 (Type 2)
  30. Bit depth                                : 10 bits
  31. Bits/(Pixel*Frame)                       : 0.145
  32. Stream size                              : 17.4 GiB (80%)
  33. Title                                    : HEVC, x265Main10@L5.1@High, 24/1.001 fps @ 21368 kbps
  34. Writing library                          : x265 3.5+36-1f2c8da77:[Windows][GCC 11.2.0][64 bit] 10bit
  35. Encoding settings                        : cpuid=533541111039 / frame-threads=4 / numa-pools=20 / wpp / no-pmode / no-pme / no-psnr / no-ssim / log-level=2 / input-csp=1 / input-res=3840x1606 / interlace=0 / total-frames=167689 / level-idc=51 / high-tier=1 / uhd-bd=0 / ref=4 / no-allow-non-conformance / repeat-headers / annexb / no-aud / no-eob / no-eos / hrd / info / hash=0 / no-temporal-layers / no-open-gop / min-keyint=24 / keyint=240 / gop-lookahead=0 / bframes=8 / b-adapt=2 / b-pyramid / bframe-bias=0 / rc-lookahead=25 / lookahead-slices=0 / NTMzNTQ=uuDQuD2mJt9fsCf / scenecut=40 / no-hist-scenecut / radl=0 / no-splice / no-intra-refresh / ctu=64 / min-cu-size=8 / no-rect / no-amp / max-tu-size=32 / tu-inter-depth=3 / tu-intra-depth=3 / limit-tu=4 / rdoq-level=2 / dynamic-rd=0.00 / no-ssim-rd / signhide / no-tskip / nr-intra=0 / nr-inter=0 / no-constrained-intra / no-strong-intra-smoothing / max-merge=4 / limit-refs=1 / limit-modes / me=3 / subme=4 / merange=57 / temporal-mvp / no-frame-dup / no-hme / weightp / weightb / no-analyze-src-pics / deblock=-3:-3 / no-sao / no-sao-non-deblock / rd=6 / selective-sao=0 / no-early-skip / rskip / no-fast-intra / no-tskip-fast / no-cu-lossless / b-intra / no-splitrd-skip / rdpenalty=0 / psy-rd=2.00 / psy-rdoq=1.00 / no-rd-refine / no-lossless / cbqpoffs=-2 / crqpoffs=-2 / rc=crf / crf=19.5 / qcomp=0.65 / qpstep=4 / stats-write=0 / stats-read=0 / vbv-maxrate=160000 / vbv-bufsize=160000 / vbv-init=0.9 / min-vbv-fullness=50.0 / max-vbv-fullness=80.0 / crf-max=0.0 / crf-min=0.0 / ipratio=1.30 / pbratio=1.20 / aq-mode=3 / aq-strength=0.85 / cutree / zone-count=0 / no-strict-cbr / qg-size=32 / no-rc-grain / qpmax=69 / qpmin=0 / no-const-vbv / sar=1 / overscan=0 / videoformat=5 / range=0 / colorprim=9 / transfer=16 / colormatrix=9 / chromaloc=1 / chromaloc-top=2 / chromaloc-bottom=2 / display-window=0 / master-display=G(13250,34500)B(7500,3000)R(34000,16000)WP(15635,16450)L(40000000,50) / cll=2668,981 / min-luma=0 / max-luma=1023 / log2-max-poc-lsb=8 / vui-timing-info / vui-hrd-info / slices=1 / no-opt-qp-pps / no-opt-ref-list-length-pps / no-multi-pass-opt-rps / scenecut-bias=0.05 / hist-threshold=0.03 / no-opt-cu-delta-qp / no-aq-motion / hdr10 / hdr10-opt / no-dhdr10-opt / no-idr-recovery-sei / analysis-reuse-level=0 / analysis-save-reuse-level=0 / analysis-load-reuse-level=0 / scale-factor=0 / refine-intra=0 / refine-inter=0 / refine-mv=1 / refine-ctu-distortion=0 / no-limit-sao / ctu-info=0 / no-lowpass-dct / refine-analysis-type=0 / copy-pic=1 / max-ausize-factor=1.0 / no-dynamic-refine / no-single-sei / no-hevc-aq / no-svt / no-field / qp-adaptation-range=1.00 / scenecut-aware-qp=0conformance-window-offsets / right=0 / bottom=0 / NTMzNTQ= / decoder-max-rate=0 / no-vbv-live-multi-pass
  36. Language                                 : English
  37. Default                                  : Yes
  38. Forced                                   : No
  39. Color range                              : Limited
  40. Color primaries                          : BT.2020
  41. Transfer characteristics                 : PQ
  42. Matrix coefficients                      : BT.2020 non-constant
  43. Mastering display color primaries        : Display P3
  44. Mastering display luminance              : min: 0.0050 cd/m2, max: 4000 cd/m2
  45. Maximum Content Light Level              : 2668 cd/m2
  46. Maximum Frame-Average Light Level        : 981 cd/m2
  47. Audio
  48. ID                                       : 2
  49. Format                                   : DTS XLL
  50. Format/Info                              : Digital Theater Systems
  51. Commercial name                          : DTS-HD Master Audio
  52. Codec ID                                 : A_DTS
  53. Duration                                 : 1 h 56 min
  54. Bit rate mode                            : Variable
  55. Bit rate                                 : 4 966 kb/s
  56. Channel(s)                               : 8 channels
  57. Channel layout                           : C L R LFE Lb Rb Lss Rss
  58. Sampling rate                            : 48.0 kHz
  59. Frame rate                               : 93.750 FPS (512 SPF)
  60. Bit depth                                : 24 bits
  61. Compression mode                         : Lossless
  62. Stream size                              : 4.04 GiB (19%)
  63. Title                                    : English DTS-HD Master Audio 7.1 @ 4966 kbps
  64. Language                                 : English
  65. Default                                  : Yes
  66. Forced                                   : No
  67. Text #1
  68. ID                                       : 3
  69. Format                                   : PGS
  70. Codec ID                                 : S_HDMV/PGS
  71. Codec ID/Info                            : Picture based subtitle format used on BDs/HD-DVDs
  72. Duration                                 : 1 h 49 min
  73. Bit rate                                 : 53.6 kb/s
  74. Count of elements                        : 2514
  75. Stream size                              : 42.0 MiB (0%)
  76. Title                                    : Eng/SUP
  77. Language                                 : English
  78. Default                                  : No
  79. Forced                                   : No
  80. Text #2
  81. ID                                       : 4
  82. Format                                   : PGS
  83. Codec ID                                 : S_HDMV/PGS
  84. Codec ID/Info                            : Picture based subtitle format used on BDs/HD-DVDs
  85. Duration                                 : 1 h 49 min
  86. Bit rate                                 : 51.9 kb/s
  87. Count of elements                        : 3980
  88. Stream size                              : 40.6 MiB (0%)
  89. Title                                    : Chs/SUP  简体
  90. Language                                 : Chinese
  91. Default                                  : Yes
  92. Forced                                   : No
  93. Text #3
  94. ID                                       : 5
  95. Format                                   : PGS
  96. Codec ID                                 : S_HDMV/PGS
  97. Codec ID/Info                            : Picture based subtitle format used on BDs/HD-DVDs
  98. Duration                                 : 1 h 49 min
  99. Bit rate                                 : 53.8 kb/s
  100. Count of elements                        : 3980
  101. Stream size                              : 42.1 MiB (0%)
  102. Title                                    : Cht/SUP  繁体
  103. Language                                 : Chinese
  104. Default                                  : No
  105. Forced                                   : No
  106. Text #4
  107. ID                                       : 6
  108. Format                                   : PGS
  109. Codec ID                                 : S_HDMV/PGS
  110. Codec ID/Info                            : Picture based subtitle format used on BDs/HD-DVDs
  111. Duration                                 : 1 h 49 min
  112. Bit rate                                 : 80.0 kb/s
  113. Count of elements                        : 2966
  114. Stream size                              : 62.6 MiB (0%)
  115. Title                                    : Chs/SUP  简英双语
  116. Language                                 : Chinese
  117. Default                                  : No
  118. Forced                                   : No
  119. Text #5
  120. ID                                       : 7
  121. Format                                   : PGS
  122. Codec ID                                 : S_HDMV/PGS
  123. Codec ID/Info                            : Picture based subtitle format used on BDs/HD-DVDs
  124. Duration                                 : 1 h 49 min
  125. Bit rate                                 : 80.9 kb/s
  126. Count of elements                        : 2966
  127. Stream size                              : 63.4 MiB (0%)
  128. Title                                    : Cht/SUP  繁英双语
  129. Language                                 : Chinese
  130. Default                                  : No
  131. Forced                                   : No
  132. Menu
  133. 00:00:00.000                             : en:第 01 章
  134. 00:09:14.095                             : en:第 02 章
  135. 00:19:37.092                             : en:第 03 章
  136. 00:29:26.431                             : en:第 04 章
  137. 00:36:33.648                             : en:第 05 章
  138. 00:47:14.539                             : en:第 06 章
  139. 00:56:26.298                             : en:第 07 章
  140. 01:10:33.311                             : en:第 08 章
  141. 01:20:05.801                             : en:第 09 章
  142. 01:29:03.003                             : en:第 10 章
  143. 01:35:24.926                             : en:第 11 章
  144. 01:48:43.182                             : en:第 12 章





此处一般会放置磁力链或种子下载链接,不过此链接需要注册会员才能看到,点击“立即注册”
磁力链下载【下载链接仅对注册会员开放,登陆后可见】
BT9527电影天堂 1、BT9527电影天堂提供的BT文件均来源于互联网抓取,只供网友学习交流、技术提升使用。
2、我们遵守BitTorrent点对点协议原则,任何版权问题请联系原资源发布商,我们不处理任何版权纠纷,谢谢!如有争议请联系邮箱:BT9527#hotmail.com(#换成@)
3、如果您发现某页面或地址有错误,请联系站长邮箱BT9527#hotmail.com(#换成@),我们会尽快处理。您的热心是对BT9527电影天堂最大的支持。
4、本站建议去正规影院观看电影以支持电影行业发展。
最新回复 (0)

你可以在 登录 or 注册 后,对此帖发表评论!

返回
发新帖