9发子弹[简繁英字幕].9.Bullets.2022.BluRay.1080p.DTS-HD.MA5.1.x265.10bit-ALT 6.19GB

版主小s 10天前 52

✔资源类型:暂未分类   ✔电影年份:2022   ✔电影地区:欧美   ✔电影分类:剧情

◎标  题 9发子弹
◎译  名 Gypsy Moon / 玫瑰舞后之月
◎片  名 9 Bullets
◎年  代 2022
◎产  地 美国
◎类  别 剧情 / 惊悚
◎语  言 英语
◎上映日期 2022-04-15(美国)
◎IMDb评分 3.8/10 (880人评价)
◎IMDb链接 https://www.imdb.com/title/tt13680520/
◎豆瓣评分 5.0/10 (133人评价)
◎豆瓣链接 https://movie.douban.com/subject/35458988/
◎演  员 琳娜·海蒂 Lena Headey
       萨姆·沃辛顿 Sam Worthington
       芭芭拉·赫希 Barbara Hershey
       凯姆·吉甘戴 Cam Gigandet
       艾玛·霍泽尔 Emma Holzer
       科妮莉亚·格斯特 Cornelia Guest
       克里斯‧穆利纳克斯 Chris Mullinax
       玛琳娜·福特 Marlene Forte
       马克·门查卡 Marc Menchaca
       约旦·迪恩·斯科特 Jordan Dean Scott
       安东尼·菲茨杰拉德 Anthony Fitzgerald

◎简  介
  琳娜·海蒂、萨姆·沃辛顿、迪恩·斯科特·瓦兹奎兹(Dean Scott Vasquez)、芭芭拉·赫希([黑天鹅])将出演独立制片新片[玫瑰舞后之月](Gypsy Moon,暂译)。该片由吉吉·加斯顿(Gigi Gaston)自编自导,拉拉·安东尼(La La Anthony)、凯姆·吉甘戴([暮光之城])、马丁·山米尔(Martin Sensmeier)、艾玛·霍泽尔一同出演。海蒂饰演的女主角,是一个被前男友(沃辛顿饰)威胁性命的滑稽舞表演者。在最后一场舞蹈表演的前夜,她必须跑去救一个邻居家的男孩(瓦兹奎兹饰)。而对这个男孩的感情,给了她在生命中第二次感受到爱的机会。
  1. ##### MediaInfo ######
  2. General
  3. Unique ID                                : 66936805816911814572209635205280654215 (0x325B8F53AB582E49B3EF8EBE5A5B6387)
  4. Complete name                            : 9.Bullets.2022.BluRay.1080p.DTS-HD.MA5.1.x265.10bit-ALT.mkv
  5. Format                                   : Matroska
  6. Format version                           : Version 4
  7. File size                                : 6.19 GiB
  8. Duration                                 : 1 h 36 min
  9. Overall bit rate mode                    : Variable
  10. Overall bit rate                         : 9 178 kb/s
  11. Encoded date                             : UTC 2022-06-23 04:31:28
  12. Writing application                      : mkvmerge v49.0.0 ('Sick Of Losing Soulmates') 64-bit
  13. Writing library                          : libebml v1.4.0 + libmatroska v1.6.1
  14. Video
  15. ID                                       : 1
  16. Format                                   : HEVC
  17. Format/Info                              : High Efficiency Video Coding
  18. Format profile                           : Main 10@L5.1@High
  19. Codec ID                                 : V_MPEGH/ISO/HEVC
  20. Duration                                 : 1 h 36 min
  21. Bit rate                                 : 5 834 kb/s
  22. Width                                    : 1 920 pixels
  23. Height                                   : 804 pixels
  24. Display aspect ratio                     : 2.40:1
  25. Frame rate mode                          : Constant
  26. Frame rate                               : 23.976 (24000/1001/53354) FPS
  27. Color space                              : YUV
  28. Chroma subsampling                       : 4:2:0
  29. Bit depth                                : 10 bits
  30. Bits/(Pixel*Frame)                       : 0.158
  31. Stream size                              : 3.93 GiB (64%)
  32. Title                                    : HEVC, x265Main10@L5.1@High, 24/1.001 fps @ 5834 kbps
  33. Writing library                          : x265 3.5+36-1f2c8da77:[Windows][GCC 11.2.0][64 bit] 10bit
  34. Encoding settings                        : cpuid=533541111039 / frame-threads=4 / numa-pools=16 / wpp / no-pmode / no-pme / no-psnr / no-ssim / log-level=2 / input-csp=1 / input-res=1920x804 / interlace=0 / total-frames=138887 / level-idc=51 / high-tier=1 / uhd-bd=0 / ref=5 / no-allow-non-conformance / no-repeat-headers / annexb / no-aud / no-eob / no-eos / no-hrd / info / hash=0 / no-temporal-layers / open-gop / min-keyint=24 / keyint=240 / gop-lookahead=0 / bframes=6 / b-adapt=2 / b-pyramid / bframe-bias=0 / rc-lookahead=40 / lookahead-slices=0 / NTMzNTQ=uuDQuD2mJt9fsCf / scenecut=40 / no-hist-scenecut / radl=0 / no-splice / no-intra-refresh / ctu=32 / min-cu-size=8 / no-rect / no-amp / max-tu-size=32 / tu-inter-depth=3 / tu-intra-depth=3 / limit-tu=4 / rdoq-level=2 / dynamic-rd=0.00 / no-ssim-rd / signhide / no-tskip / nr-intra=0 / nr-inter=0 / no-constrained-intra / no-strong-intra-smoothing / max-merge=4 / limit-refs=1 / limit-modes / me=3 / subme=4 / merange=25 / temporal-mvp / no-frame-dup / no-hme / weightp / weightb / no-analyze-src-pics / deblock=-3:-3 / no-sao / no-sao-non-deblock / rd=6 / selective-sao=0 / no-early-skip / rskip / no-fast-intra / no-tskip-fast / no-cu-lossless / b-intra / no-splitrd-skip / rdpenalty=0 / psy-rd=2.00 / psy-rdoq=1.00 / no-rd-refine / no-lossless / cbqpoffs=-2 / crqpoffs=-2 / rc=crf / crf=17.0 / qcomp=0.65 / qpstep=4 / stats-write=0 / stats-read=0 / vbv-maxrate=80000 / vbv-bufsize=80000 / vbv-init=0.9 / min-vbv-fullness=50.0 / max-vbv-fullness=80.0 / crf-max=0.0 / crf-min=0.0 / ipratio=1.40 / pbratio=1.30 / aq-mode=2 / aq-strength=0.85 / cutree / zone-count=0 / no-strict-cbr / qg-size=32 / no-rc-grain / qpmax=69 / qpmin=0 / no-const-vbv / sar=1 / overscan=0 / videoformat=5 / range=0 / colorprim=1 / transfer=1 / colormatrix=1 / chromaloc=0 / display-window=0 / cll=0,0 / min-luma=0 / max-luma=1023 / log2-max-poc-lsb=8 / vui-timing-info / vui-hrd-info / slices=1 / no-opt-qp-pps / no-opt-ref-list-length-pps / no-multi-pass-opt-rps / scenecut-bias=0.05 / hist-threshold=0.03 / no-opt-cu-delta-qp / no-aq-motion / no-hdr10 / no-hdr10-opt / no-dhdr10-opt / no-idr-recovery-sei / analysis-reuse-level=0 / analysis-save-reuse-level=0 / analysis-load-reuse-level=0 / scale-factor=0 / refine-intra=0 / refine-inter=0 / refine-mv=1 / refine-ctu-distortion=0 / no-limit-sao / ctu-info=0 / no-lowpass-dct / refine-analysis-type=0 / copy-pic=1 / max-ausize-factor=1.0 / no-dynamic-refine / no-single-sei / no-hevc-aq / no-svt / no-field / qp-adaptation-range=1.00 / scenecut-aware-qp=0conformance-window-offsets / right=0 / bottom=0 / NTMzNTQ= / decoder-max-rate=0 / no-vbv-live-multi-pass
  35. Language                                 : English
  36. Default                                  : Yes
  37. Forced                                   : No
  38. Color range                              : Limited
  39. Color primaries                          : BT.709
  40. Transfer characteristics                 : BT.709
  41. Matrix coefficients                      : BT.709
  42. Audio
  43. ID                                       : 2
  44. Format                                   : DTS XLL
  45. Format/Info                              : Digital Theater Systems
  46. Commercial name                          : DTS-HD Master Audio
  47. Codec ID                                 : A_DTS
  48. Duration                                 : 1 h 36 min
  49. Bit rate mode                            : Variable
  50. Bit rate                                 : 3 208 kb/s
  51. Channel(s)                               : 6 channels
  52. Channel layout                           : C L R Ls Rs LFE
  53. Sampling rate                            : 48.0 kHz
  54. Frame rate                               : 93.750 FPS (512 SPF)
  55. Bit depth                                : 24 bits
  56. Compression mode                         : Lossless
  57. Stream size                              : 2.16 GiB (35%)
  58. Title                                    : English DTS-HD Master Audio 5.1 @ 3207 kbps
  59. Language                                 : English
  60. Default                                  : Yes
  61. Forced                                   : No
  62. Text #1
  63. ID                                       : 3
  64. Format                                   : PGS
  65. Codec ID                                 : S_HDMV/PGS
  66. Codec ID/Info                            : Picture based subtitle format used on BDs/HD-DVDs
  67. Duration                                 : 1 h 36 min
  68. Bit rate                                 : 55.5 kb/s
  69. Count of elements                        : 2258
  70. Stream size                              : 38.2 MiB (1%)
  71. Title                                    : Eng/SUP
  72. Language                                 : English
  73. Default                                  : No
  74. Forced                                   : No
  75. Text #2
  76. ID                                       : 4
  77. Format                                   : PGS
  78. Codec ID                                 : S_HDMV/PGS
  79. Codec ID/Info                            : Picture based subtitle format used on BDs/HD-DVDs
  80. Duration                                 : 1 h 34 min
  81. Bit rate                                 : 39.1 kb/s
  82. Count of elements                        : 2876
  83. Stream size                              : 26.4 MiB (0%)
  84. Title                                    : Chs/SUP  简英双语
  85. Language                                 : Chinese
  86. Default                                  : Yes
  87. Forced                                   : No
  88. Text #3
  89. ID                                       : 5
  90. Format                                   : PGS
  91. Codec ID                                 : S_HDMV/PGS
  92. Codec ID/Info                            : Picture based subtitle format used on BDs/HD-DVDs
  93. Duration                                 : 1 h 34 min
  94. Bit rate                                 : 39.8 kb/s
  95. Count of elements                        : 2876
  96. Stream size                              : 26.9 MiB (0%)
  97. Title                                    : Cht/SUP  繁英双语
  98. Language                                 : Chinese
  99. Default                                  : No
  100. Forced                                   : No
  101. Menu
  102. 00:00:00.000                             : en:第 01 章
  103. 00:07:35.455                             : en:第 02 章
  104. 00:15:06.823                             : en:第 03 章
  105. 00:22:03.030                             : en:第 04 章
  106. 00:30:31.580                             : en:第 05 章
  107. 00:38:02.864                             : en:第 06 章
  108. 00:46:13.854                             : en:第 07 章
  109. 00:55:43.257                             : en:第 08 章
  110. 01:05:08.613                             : en:第 09 章
  111. 01:11:17.148                             : en:第 10 章
  112. 01:21:04.318                             : en:第 11 章
  113. 01:30:13.533                             : en:第 12 章





此处一般会放置磁力链或种子下载链接,不过此链接需要注册会员才能看到,点击“立即注册”
磁力链下载【下载链接仅对注册会员开放,登陆后可见】
BT9527电影天堂 1、BT9527电影天堂提供的BT文件均来源于互联网抓取,只供网友学习交流、技术提升使用。
2、我们遵守BitTorrent点对点协议原则,任何版权问题请联系原资源发布商,我们不处理任何版权纠纷,谢谢!如有争议请联系邮箱:BT9527#hotmail.com(#换成@)
3、如果您发现某页面或地址有错误,请联系站长邮箱BT9527#hotmail.com(#换成@),我们会尽快处理。您的热心是对BT9527电影天堂最大的支持。
4、本站建议去正规影院观看电影以支持电影行业发展。
最新回复 (0)

你可以在 登录 or 注册 后,对此帖发表评论!

返回
发新帖