我是布莱克[简繁字幕].I.Daniel.Blake.2016.BluRay.1080p.x265.10bit-MiniHD 5.44GB

版主小s 4天前 18

✔资源类型:暂未分类   ✔电影年份:2016   ✔电影地区:欧美   ✔电影分类:剧情

◎标  题 我是布莱克
◎译  名 我,不低头(港) / 我,丹尼尔·布莱克
◎片  名 I, Daniel Blake
◎年  代 2016
◎产  地 英国 / 法国 / 比利时
◎类  别 剧情
◎语  言 英语
◎上映日期 2016-05-13(戛纳电影节) / 2016-10-21(英国)
◎IMDb评分 7.9/10 (57484人评价)
◎IMDb链接 https://www.imdb.com/title/tt5168192/
◎豆瓣评分 8.3/10 (27314人评价)
◎豆瓣链接 https://movie.douban.com/subject/26653676/
◎片  长 100分钟
◎导  演 肯·洛奇 Ken Loach
◎编  剧 保罗·拉弗蒂 Paul Laverty
◎演  员 戴夫·琼斯 Dave Johns
       海莉·斯奎尔斯 Hayley Squires
       莎伦·佩尔西 Sharon Percy
       布莱恩娜·尚恩 Briana Shann
       迪伦·麦基尔南 Dylan McKiernan
       娜塔利·安·杰米森 Natalie Ann Jamieson
       史蒂芬·克雷格 Stephen Clegg
       哈瑞特·构斯特 Harriet Ghost
       李丹 Dan Li
       米奇·麦格雷戈 Micky McGregor
       大卫·莫瑞 David Murray
       茱莉·尼科尔森 Julie Nicholson
       杰姆斯·赫普沃思 James Hepworth

◎标  签 英国 / 社会 / 剧情 / 人性 / 2016 / 温情 / 戛纳 / 法国

◎简  介
    59岁的丹尼尔·布莱克(戴夫·琼斯 Dave Johns 饰)是个木匠,由于心脏问题,他生平第一次需要申请社会救济。尽管他的医生禁止他继续工作,但他依然决定冒着被罚款的风险找一份工作。在他反复前往“就业中心”求职的过程中,他结识了凯蒂(海莉·斯奎尔斯 Hayley Squires 饰),一位需要照顾两个孩子的单身母亲。为了不让孩子流落到儿童福利院,她不得不住在一间离自己出生地450公里远的住房内。当今英国行政机构的繁琐程序就像一张网,牢牢套住两人。丹尼尔和凯蒂决定尝试相互帮助……
  1. ##### MediaInfo ######
  2. General
  3. Unique ID                                : 226746755389149703873285783951026077246 (0xAA95D62B653861918A5A0FFB6DCEBE3E)
  4. Complete name                            : I.Daniel.Blake.2016.BluRay.1080p.x265.10bit-MiniHD.mkv
  5. Format                                   : Matroska
  6. Format version                           : Version 4
  7. File size                                : 5.44 GiB
  8. Duration                                 : 1 h 40 min
  9. Overall bit rate                         : 7 783 kb/s
  10. Encoded date                             : UTC 2018-02-23 15:32:54
  11. Writing application                      : mkvmerge v8.5.2 ('Crosses') 32bit
  12. Writing library                          : libebml v1.3.3 + libmatroska v1.4.4
  13. Video
  14. ID                                       : 1
  15. Format                                   : HEVC
  16. Format/Info                              : High Efficiency Video Coding
  17. Format profile                           : Main 10@L4@Main
  18. Codec ID                                 : V_MPEGH/ISO/HEVC
  19. Duration                                 : 1 h 40 min
  20. Bit rate                                 : 7 064 kb/s
  21. Width                                    : 1 920 pixels
  22. Height                                   : 1 036 pixels
  23. Display aspect ratio                     : 1.85:1
  24. Frame rate mode                          : Constant
  25. Frame rate                               : 23.976 (24000/1001/53354) FPS
  26. Color space                              : YUV
  27. Chroma subsampling                       : 4:2:0
  28. Bit depth                                : 10 bits
  29. Bits/(Pixel*Frame)                       : 0.148
  30. Stream size                              : 4.94 GiB (91%)
  31. Writing library                          : x265 2.6+31-3712d13c09bf:[Windows][MSVC 1912][64 bit] 10bit
  32. Encoding settings                        : cpuid=533541173503 / frame-threads=2 / numa-pools=4 / wpp / no-pmode / no-pme / no-psnr / no-ssim / log-level=2 / input-csp=1 / input-res=1920x1036 / interlace=0 / total-frames=143986 / level-idc=0 / high-tier=1 / uhd-bd=0 / ref=5 / no-allow-non-conformance / no-repeat-headers / annexb / no-aud / no-hrd / info / hash=0 / no-temporal-layers / no-open-gop / min-keyint=1 / keyint=360 / gop-lookahead=0 / bframes=8 / b-adapt=2 / b-pyramid / bframe-bias=0 / rc-lookahead=60 / lookahead-slices=4 / NTMzNTQ=uuDQuD2mJt9fsCf / scenecut=40 / radl=0 / no-intra-refresh / ctu=32 / min-cu-size=8 / no-rect / no-amp / max-tu-size=16 / tu-inter-depth=2 / tu-intra-depth=2 / limit-tu=4 / rdoq-level=2 / dynamic-rd=0.00 / ssim-rd / signhide / no-tskip / nr-intra=0 / nr-inter=0 / no-constrained-intra / no-strong-intra-smoothing / max-merge=3 / limit-refs=2 / limit-modes / me=3 / subme=5 / merange=25 / temporal-mvp / weightp / weightb / no-analyze-src-pics / deblock=-1:-1 / no-sao / no-sao-non-deblock / rd=4 / no-early-skip / no-rskip / no-fast-intra / no-tskip-fast / no-cu-lossless / b-intra / no-splitrd-skip / rdpenalty=1 / psy-rd=0.00 / psy-rdoq=5.00 / no-rd-refine / no-lossless / cbqpoffs=-2 / crqpoffs=-2 / rc=crf / crf=18.0 / qcomp=0.65 / qpstep=4 / stats-write=0 / stats-read=0 / ipratio=1.40 / pbratio=1.30 / aq-mode=2 / aq-strength=0.80 / cutree / zone-count=0 / no-strict-cbr / qg-size=16 / no-rc-grain / qpmax=69 / qpmin=0 / no-const-vbv / sar=1 / overscan=0 / videoformat=5 / range=0 / colorprim=1 / transfer=2 / colormatrix=2 / chromaloc=0 / display-window=0 / max-cll=0,0 / min-luma=0 / max-luma=1023 / log2-max-poc-lsb=8 / vui-timing-info / vui-hrd-info / slices=1 / no-opt-qp-pps / no-opt-ref-list-length-pps / no-multi-pass-opt-rps / scenecut-bias=0.05 / no-opt-cu-delta-qp / no-aq-motion / no-hdr / no-hdr-opt / no-dhdr10-opt / analysis-reuse-level=5 / scale-factor=0 / refine-intra=0 / refine-inter=0 / refine-mv=0 / no-limit-sao / ctu-info=0 / no-lowpass-dct / refine-mv-type=0 / copy-pic=1
  33. Default                                  : Yes
  34. Forced                                   : No
  35. Color range                              : Limited
  36. Color primaries                          : BT.709
  37. Audio
  38. ID                                       : 2
  39. Format                                   : AC-3
  40. Format/Info                              : Audio Coding 3
  41. Commercial name                          : Dolby Digital
  42. Codec ID                                 : A_AC3
  43. Duration                                 : 1 h 40 min
  44. Bit rate mode                            : Constant
  45. Bit rate                                 : 640 kb/s
  46. Channel(s)                               : 6 channels
  47. Channel layout                           : L R C LFE Ls Rs
  48. Sampling rate                            : 48.0 kHz
  49. Frame rate                               : 31.250 FPS (1536 SPF)
  50. Compression mode                         : Lossy
  51. Stream size                              : 458 MiB (8%)
  52. Service kind                             : Complete Main
  53. Default                                  : Yes
  54. Forced                                   : No
  55. Text #1
  56. ID                                       : 3
  57. Format                                   : PGS
  58. Muxing mode                              : zlib
  59. Codec ID                                 : S_HDMV/PGS
  60. Codec ID/Info                            : Picture based subtitle format used on BDs/HD-DVDs
  61. Duration                                 : 1 h 37 min
  62. Bit rate                                 : 23.0 kb/s
  63. Count of elements                        : 2967
  64. Stream size                              : 16.0 MiB (0%)
  65. Title                                    : CHT
  66. Language                                 : Chinese
  67. Default                                  : No
  68. Forced                                   : No
  69. Text #2
  70. ID                                       : 4
  71. Format                                   : PGS
  72. Muxing mode                              : zlib
  73. Codec ID                                 : S_HDMV/PGS
  74. Codec ID/Info                            : Picture based subtitle format used on BDs/HD-DVDs
  75. Duration                                 : 1 h 37 min
  76. Bit rate                                 : 19.1 kb/s
  77. Count of elements                        : 2967
  78. Stream size                              : 13.3 MiB (0%)
  79. Title                                    : CHS
  80. Language                                 : Chinese
  81. Default                                  : No
  82. Forced                                   : No
  83. Text #3
  84. ID                                       : 5
  85. Format                                   : PGS
  86. Muxing mode                              : zlib
  87. Codec ID                                 : S_HDMV/PGS
  88. Codec ID/Info                            : Picture based subtitle format used on BDs/HD-DVDs
  89. Duration                                 : 1 h 37 min
  90. Bit rate                                 : 36.6 kb/s
  91. Count of elements                        : 2967
  92. Stream size                              : 25.5 MiB (0%)
  93. Title                                    : CHS&ENG
  94. Language                                 : Chinese
  95. Default                                  : Yes
  96. Forced                                   : Yes
  97. Menu
  98. 00:00:00.000                             : en:00:00:00.000
  99. 00:05:28.119                             : en:00:05:28.119
  100. 00:12:27.497                             : en:00:12:27.497
  101. 00:19:00.514                             : en:00:19:00.514
  102. 00:26:09.067                             : en:00:26:09.067
  103. 00:32:48.675                             : en:00:32:48.675
  104. 00:39:25.113                             : en:00:39:25.113
  105. 00:46:07.056                             : en:00:46:07.056
  106. 00:50:29.318                             : en:00:50:29.318
  107. 00:57:54.054                             : en:00:57:54.054
  108. 01:04:07.260                             : en:01:04:07.260
  109. 01:10:28.558                             : en:01:10:28.558
  110. 01:16:48.729                             : en:01:16:48.729
  111. 01:23:09.109                             : en:01:23:09.109
  112. 01:30:56.868                             : en:01:30:56.868
  113. 01:38:14.555                             : en:01:38:14.555





此处一般会放置磁力链或种子下载链接,不过此链接需要注册会员才能看到,点击“立即注册”
磁力链下载【下载链接仅对注册会员开放,登陆后可见】
BT9527电影天堂 1、BT9527电影天堂提供的BT文件均来源于互联网抓取,只供网友学习交流、技术提升使用。
2、我们遵守BitTorrent点对点协议原则,任何版权问题请联系原资源发布商,我们不处理任何版权纠纷,谢谢!如有争议请联系邮箱:BT9527#hotmail.com(#换成@)
3、如果您发现某页面或地址有错误,请联系站长邮箱BT9527#hotmail.com(#换成@),我们会尽快处理。您的热心是对BT9527电影天堂最大的支持。
4、本站建议去正规影院观看电影以支持电影行业发展。
最新回复 (0)

你可以在 登录 or 注册 后,对此帖发表评论!

返回