我是传奇[国英多音轨/简繁英特效字幕].I.Am.Legend.2007.BluRay.1080p.x265.10bit.HDR10.2Audio-MiniHD 3.55GB

版主小s 3月前 119

✔资源类型:暂未分类   ✔电影年份:2007   ✔电影地区:欧美   ✔电影分类:剧情

◎标  题 我是传奇
◎译  名 魔间传奇(港) / 末日传奇
◎片  名 I Am Legend
◎年  代 2007
◎产  地 美国
◎类  别 剧情 / 动作 / 惊悚 / 冒险
◎语  言 英语
◎上映日期 2007-12-14(美国)
◎IMDb评分 7.2/10 (719111人评价)
◎IMDb链接 https://www.imdb.com/title/tt0480249/
◎豆瓣评分 8.1/10 (361960人评价)
◎豆瓣链接 https://movie.douban.com/subject/1820156/
◎片  长 101分钟 / 104分钟
◎导  演 弗朗西斯·劳伦斯 Francis Lawrence
◎编  剧 马克·波托塞维奇 Mark Protosevich
       阿齐瓦·高斯曼 Akiva Goldsman
       理查德·麦瑟森 Richard Matheson
       约翰·威廉·科林顿 John William Corrington
       乔伊斯·胡珀·科林顿 Joyce Hooper Corrington
◎演  员 威尔·史密斯 Will Smith
       艾莉丝·布拉加 Alice Braga
       查理·塔汉 Charlie Tahan
       莎莉·理查德森 Salli Richardson
       薇洛·史密斯 Willow Smith
       艾普尔·格雷斯 April Grace
       达什·米霍克 Dash Mihok
       Abbey Abbey
       Kona Kona
       詹姆斯·迈克尔·麦考利 James Michael McCauley
       马琳·爱尔兰 Marin Ireland
        Calista Hill
       加布里埃拉希尔 Gabriella Hill
        Madeline Hill
       亚历山大·蒂珀希亚 Alexander DiPersia
       帕特·弗雷利 Pat Fraley
       凯特林·麦克休 Caitlin McHugh
       麦克·帕顿 Mike Patton
       Vince Cupone Vince Cupone
       利娜·戴维斯 Lynna' Davis
       John Grady John Grady
       里德凯利 Reed Kelly
       考特尼·芒奇 Courtney Munch
       奥奎·奥克波克瓦西里 Okwui Okpokwasili
       Hannah Sim Hannah Sim
       艾瑞克·斯皮尔 Eric Spear
       马克·斯达格 Mark Steger
       乔纳森·查尔斯 Jonathan Charles
       凯蒂·柯丽克 Katie Couric
        Gustavo Cunha
       安·克莉 Ann Curry
        Arthur Fridman
       洛根·弗莱 Logan Fry
        Theresa Galeani
       丹格里芬 Dan Griffin
        Jim Haggerty
       马特·劳厄尔 Matt Lauer
       Sal Lizard Sal Lizard
        Jay McCarey
        Sean McGillen
       Don Money Don Money
       艾玛·汤普森 Emma Thompson
       史蒂文·奎里 Steven Quale
       萨拉·德罗萨 Sara DeRosa
       托尼·德文 Tony Devon

◎标  签 科幻 / 威尔·史密斯 / 美国 / WillSmith / 丧尸 / 美国电影 / 我是传奇 / 灾难

◎简  介
    2012年,人类被不知名病毒感染,纽约成为一座空城。Robert Neville(Will Smith 饰)是为军方服务的科学家,也是对病毒有免疫力的幸存者。白天,他带着狗Sam在街道上寻找食物,用广播寻找幸存者,在实验室里研究治愈病毒的方法;晚上,他只能躲在屋子里,因为那些感染病毒而没有死亡的人们,成为了“夜魔”只能夜晚出来活动,丧失理智,会攻击所有的人。                                    
                                  某天,Sam也感染病毒死去,Robert Neville陷入了前所未有的孤独。当他准备和“夜魔”们同归于尽的时候,另外一个幸存者Anna(Alice Braga 饰)救了他。Anna相信山上的隔离区还有幸存者,但是固执的Robert Neville却坚持守在纽约。                                    
                                  又一个晚上,“夜魔”攻击Robert Neville的住所,此时他的研究已经获得成功,但是只有坚持到天亮,人类才能得以延存。
  1. ##### MediaInfo ######
  2. General
  3. Unique ID                                : 236273508485330049542082866864236246945 (0xB1C09F5C89244ADCED0B6D2B6ACBB7A1)
  4. Complete name                            : I.Am.Legend.2007.BluRay.1080p.x265.10bit.HDR10.2Audio-MiniHD.mkv
  5. Format                                   : Matroska
  6. Format version                           : Version 4
  7. File size                                : 3.55 GiB
  8. Duration                                 : 1 h 40 min
  9. Overall bit rate                         : 5 060 kb/s
  10. Encoded date                             : UTC 2018-01-20 07:47:56
  11. Writing application                      : mkvmerge v20.0.0 ('I Am The Sun') 64-bit
  12. Writing library                          : libebml v1.3.5 + libmatroska v1.4.8
  13. Video
  14. ID                                       : 1
  15. Format                                   : HEVC
  16. Format/Info                              : High Efficiency Video Coding
  17. Format profile                           : Main 10@L5.1@Main
  18. HDR format                               : SMPTE ST 2086, HDR10 compatible
  19. Codec ID                                 : V_MPEGH/ISO/HEVC
  20. Duration                                 : 1 h 40 min
  21. Bit rate                                 : 3 948 kb/s
  22. Width                                    : 1 920 pixels
  23. Height                                   : 800 pixels
  24. Display aspect ratio                     : 2.40:1
  25. Frame rate mode                          : Constant
  26. Frame rate                               : 23.976 (24000/1001/53354) FPS
  27. Color space                              : YUV
  28. Chroma subsampling                       : 4:2:0 (Type 2)
  29. Bit depth                                : 10 bits
  30. Bits/(Pixel*Frame)                       : 0.107
  31. Stream size                              : 2.77 GiB (78%)
  32. Writing library                          : x265 2.6+27-2f3c4158cf35:[Windows][MSVC 1900][64 bit] 10bit
  33. Encoding settings                        : cpuid=533541173503 / frame-threads=2 / numa-pools=+,- / wpp / no-pmode / no-pme / no-psnr / no-ssim / log-level=2 / input-csp=1 / input-res=1920x800 / interlace=0 / total-frames=0 / level-idc=51 / high-tier=1 / uhd-bd=0 / ref=5 / no-allow-non-conformance / repeat-headers / annexb / aud / hrd / info / hash=0 / no-temporal-layers / no-open-gop / min-keyint=1 / keyint=360 / gop-lookahead=0 / bframes=8 / b-adapt=2 / b-pyramid / bframe-bias=0 / rc-lookahead=60 / lookahead-slices=4 / NTMzNTQ=uuDQuD2mJt9fsCf / scenecut=40 / radl=0 / no-intra-refresh / ctu=32 / min-cu-size=8 / no-rect / no-amp / max-tu-size=32 / tu-inter-depth=2 / tu-intra-depth=2 / limit-tu=4 / rdoq-level=2 / dynamic-rd=0.00 / ssim-rd / signhide / no-tskip / nr-intra=0 / nr-inter=0 / no-constrained-intra / no-strong-intra-smoothing / max-merge=3 / limit-refs=2 / limit-modes / me=3 / subme=5 / merange=25 / temporal-mvp / weightp / weightb / no-analyze-src-pics / deblock=-1:-1 / no-sao / no-sao-non-deblock / rd=4 / no-early-skip / no-rskip / no-fast-intra / no-tskip-fast / no-cu-lossless / b-intra / no-splitrd-skip / rdpenalty=1 / psy-rd=0.00 / psy-rdoq=5.00 / no-rd-refine / no-lossless / cbqpoffs=-3 / crqpoffs=-3 / rc=crf / crf=17.0 / qcomp=0.75 / qpstep=4 / stats-write=0 / stats-read=0 / vbv-maxrate=40000 / vbv-bufsize=40000 / vbv-init=0.9 / crf-max=0.0 / crf-min=0.0 / ipratio=1.30 / pbratio=1.20 / aq-mode=3 / aq-strength=0.90 / cutree / zone-count=0 / no-strict-cbr / qg-size=32 / no-rc-grain / qpmax=69 / qpmin=0 / no-const-vbv / sar=1 / overscan=0 / videoformat=5 / range=0 / colorprim=9 / transfer=16 / colormatrix=9 / chromaloc=1 / chromaloc-top=2 / chromaloc-bottom=2 / display-window=0 / master-display=G(13250,34500)B(7500,3000)R(34000,16000)WP(15635,16450)L(40000000,50) / max-cll=1261,512 / min-luma=0 / max-luma=1023 / log2-max-poc-lsb=8 / vui-timing-info / vui-hrd-info / slices=1 / no-opt-qp-pps / no-opt-ref-list-length-pps / no-multi-pass-opt-rps / scenecut-bias=0.05 / no-opt-cu-delta-qp / no-aq-motion / hdr / hdr-opt / no-dhdr10-opt / analysis-reuse-level=5 / scale-factor=0 / refine-intra=0 / refine-inter=0 / refine-mv=0 / no-limit-sao / ctu-info=0 / no-lowpass-dct / refine-mv-type=0 / copy-pic=1
  34. Default                                  : Yes
  35. Forced                                   : No
  36. Color range                              : Limited
  37. Color primaries                          : BT.2020
  38. Transfer characteristics                 : PQ
  39. Matrix coefficients                      : BT.2020 non-constant
  40. Mastering display color primaries        : Display P3
  41. Mastering display luminance              : min: 0.0050 cd/m2, max: 4000 cd/m2
  42. Maximum Content Light Level              : 1261 cd/m2
  43. Maximum Frame-Average Light Level        : 512 cd/m2
  44. Audio #1
  45. ID                                       : 2
  46. Format                                   : AC-3
  47. Format/Info                              : Audio Coding 3
  48. Commercial name                          : Dolby Digital
  49. Codec ID                                 : A_AC3
  50. Duration                                 : 1 h 40 min
  51. Bit rate mode                            : Constant
  52. Bit rate                                 : 640 kb/s
  53. Channel(s)                               : 6 channels
  54. Channel layout                           : L R C LFE Ls Rs
  55. Sampling rate                            : 48.0 kHz
  56. Frame rate                               : 31.250 FPS (1536 SPF)
  57. Compression mode                         : Lossy
  58. Stream size                              : 460 MiB (13%)
  59. Title                                    : 英语AC-3
  60. Language                                 : English
  61. Service kind                             : Complete Main
  62. Default                                  : Yes
  63. Forced                                   : No
  64. Audio #2
  65. ID                                       : 3
  66. Format                                   : AC-3
  67. Format/Info                              : Audio Coding 3
  68. Commercial name                          : Dolby Digital
  69. Codec ID                                 : A_AC3
  70. Duration                                 : 1 h 40 min
  71. Bit rate mode                            : Constant
  72. Bit rate                                 : 384 kb/s
  73. Channel(s)                               : 6 channels
  74. Channel layout                           : L R C LFE Ls Rs
  75. Sampling rate                            : 48.0 kHz
  76. Frame rate                               : 31.250 FPS (1536 SPF)
  77. Compression mode                         : Lossy
  78. Delay relative to video                  : 20 ms
  79. Stream size                              : 276 MiB (8%)
  80. Title                                    : 六区北影国配AC-3
  81. Language                                 : Chinese
  82. Service kind                             : Complete Main
  83. Default                                  : No
  84. Forced                                   : No
  85. Text #1
  86. ID                                       : 4
  87. Format                                   : PGS
  88. Muxing mode                              : zlib
  89. Codec ID                                 : S_HDMV/PGS
  90. Codec ID/Info                            : Picture based subtitle format used on BDs/HD-DVDs
  91. Duration                                 : 1 h 40 min
  92. Bit rate                                 : 19.3 kb/s
  93. Count of elements                        : 1494
  94. Stream size                              : 13.8 MiB (0%)
  95. Title                                    : 英文
  96. Language                                 : English
  97. Default                                  : Yes
  98. Forced                                   : No
  99. Text #2
  100. ID                                       : 5
  101. Format                                   : PGS
  102. Muxing mode                              : zlib
  103. Codec ID                                 : S_HDMV/PGS
  104. Codec ID/Info                            : Picture based subtitle format used on BDs/HD-DVDs
  105. Duration                                 : 1 h 31 min
  106. Bit rate                                 : 17.3 kb/s
  107. Count of elements                        : 1281
  108. Stream size                              : 11.3 MiB (0%)
  109. Title                                    : 六区北影国配简体中文
  110. Language                                 : Chinese
  111. Default                                  : No
  112. Forced                                   : No
  113. Text #3
  114. ID                                       : 6
  115. Format                                   : PGS
  116. Muxing mode                              : zlib
  117. Codec ID                                 : S_HDMV/PGS
  118. Codec ID/Info                            : Picture based subtitle format used on BDs/HD-DVDs
  119. Duration                                 : 1 h 33 min
  120. Bit rate                                 : 13.8 kb/s
  121. Count of elements                        : 1520
  122. Stream size                              : 9.23 MiB (0%)
  123. Title                                    : 简体中文特效
  124. Language                                 : Chinese
  125. Default                                  : No
  126. Forced                                   : No
  127. Text #4
  128. ID                                       : 7
  129. Format                                   : PGS
  130. Muxing mode                              : zlib
  131. Codec ID                                 : S_HDMV/PGS
  132. Codec ID/Info                            : Picture based subtitle format used on BDs/HD-DVDs
  133. Duration                                 : 1 h 33 min
  134. Bit rate                                 : 31.0 kb/s
  135. Count of elements                        : 1519
  136. Stream size                              : 20.6 MiB (1%)
  137. Title                                    : 简英双语特效
  138. Language                                 : Chinese
  139. Default                                  : No
  140. Forced                                   : No
  141. Text #5
  142. ID                                       : 8
  143. Format                                   : PGS
  144. Muxing mode                              : zlib
  145. Codec ID                                 : S_HDMV/PGS
  146. Codec ID/Info                            : Picture based subtitle format used on BDs/HD-DVDs
  147. Duration                                 : 1 h 33 min
  148. Bit rate                                 : 14.1 kb/s
  149. Count of elements                        : 1520
  150. Stream size                              : 9.43 MiB (0%)
  151. Title                                    : 繁体中文特效
  152. Language                                 : Chinese
  153. Default                                  : No
  154. Forced                                   : No
  155. Text #6
  156. ID                                       : 9
  157. Format                                   : PGS
  158. Muxing mode                              : zlib
  159. Codec ID                                 : S_HDMV/PGS
  160. Codec ID/Info                            : Picture based subtitle format used on BDs/HD-DVDs
  161. Duration                                 : 1 h 36 min
  162. Bit rate                                 : 30.6 kb/s
  163. Count of elements                        : 1551
  164. Stream size                              : 21.1 MiB (1%)
  165. Title                                    : 繁英双语特效
  166. Language                                 : Chinese
  167. Default                                  : No
  168. Forced                                   : No
  169. Text #7
  170. ID                                       : 10
  171. Format                                   : PGS
  172. Muxing mode                              : zlib
  173. Codec ID                                 : S_HDMV/PGS
  174. Codec ID/Info                            : Picture based subtitle format used on BDs/HD-DVDs
  175. Duration                                 : 1 h 40 min
  176. Bit rate                                 : 14.8 kb/s
  177. Count of elements                        : 1316
  178. Stream size                              : 10.6 MiB (0%)
  179. Title                                    : 原盘繁体中文-HK
  180. Language                                 : Chinese
  181. Default                                  : No
  182. Forced                                   : No
  183. Text #8
  184. ID                                       : 11
  185. Format                                   : PGS
  186. Muxing mode                              : zlib
  187. Codec ID                                 : S_HDMV/PGS
  188. Codec ID/Info                            : Picture based subtitle format used on BDs/HD-DVDs
  189. Duration                                 : 1 h 40 min
  190. Bit rate                                 : 14.6 kb/s
  191. Count of elements                        : 1340
  192. Stream size                              : 10.5 MiB (0%)
  193. Title                                    : 原盘繁体中文-TW
  194. Language                                 : Chinese
  195. Default                                  : No
  196. Forced                                   : No
  197. Menu
  198. 00:00:00.000                             : en:Chapter 1
  199. 00:02:14.134                             : en:Chapter 2
  200. 00:07:56.476                             : en:Chapter 3
  201. 00:12:07.393                             : en:Chapter 4
  202. 00:15:15.706                             : en:Chapter 5
  203. 00:18:20.099                             : en:Chapter 6
  204. 00:23:22.526                             : en:Chapter 7
  205. 00:26:42.183                             : en:Chapter 8
  206. 00:31:49.282                             : en:Chapter 9
  207. 00:34:15.595                             : en:Chapter 10
  208. 00:37:45.805                             : en:Chapter 11
  209. 00:39:16.145                             : en:Chapter 12
  210. 00:44:06.644                             : en:Chapter 13
  211. 00:48:50.928                             : en:Chapter 14
  212. 00:53:12.731                             : en:Chapter 15
  213. 00:56:54.786                             : en:Chapter 16
  214. 00:59:41.452                             : en:Chapter 17
  215. 01:02:41.090                             : en:Chapter 18
  216. 01:04:30.658                             : en:Chapter 19
  217. 01:09:18.487                             : en:Chapter 20
  218. 01:11:21.902                             : en:Chapter 21
  219. 01:17:38.779                             : en:Chapter 22
  220. 01:20:14.935                             : en:Chapter 23
  221. 01:24:10.920                             : en:Chapter 24
  222. 01:27:59.691                             : en:Chapter 25
  223. 01:29:48.049                             : en:Chapter 26
  224. 01:31:48.002                             : en:Chapter 27





此处一般会放置磁力链或种子下载链接,不过此链接需要注册会员才能看到,点击“立即注册”
磁力链下载【下载链接仅对注册会员开放,登陆后可见】
BT9527电影天堂 1、BT9527电影天堂提供的BT文件均来源于互联网抓取,只供网友学习交流、技术提升使用。
2、我们遵守BitTorrent点对点协议原则,任何版权问题请联系原资源发布商,我们不处理任何版权纠纷,谢谢!如有争议请联系邮箱:BT9527#hotmail.com(#换成@)
3、如果您发现某页面或地址有错误,请联系站长邮箱BT9527#hotmail.com(#换成@),我们会尽快处理。您的热心是对BT9527电影天堂最大的支持。
4、本站建议去正规影院观看电影以支持电影行业发展。
最新回复 (0)

你可以在 登录 or 注册 后,对此帖发表评论!

返回