我,花样女王[简繁英字幕].I.Tonya.2017.BluRay.1080p.x265.10bit-MiniHD 5.23GB

版主小s 7天前 47

✔资源类型:暂未分类   ✔电影年份:2017   ✔电影地区:欧美   ✔电影分类:剧情

◎标  题 我,花样女王
◎译  名 冰之骄女(港) / 老娘叫谭雅(台) / 我,冰上女王 / 我,塔尼娅 / 我,托尼亚 / 我是坦雅 / 我是托尼娅
◎片  名 I, Tonya
◎年  代 2017
◎产  地 英国 / 美国 / 卡塔尔
◎类  别 剧情 / 喜剧 / 传记 / 运动
◎语  言 英语
◎上映日期 2017-09-08(多伦多电影节) / 2017-12-08(美国)
◎IMDb评分 7.5/10 (200686人评价)
◎IMDb链接 https://www.imdb.com/title/tt5580036/
◎豆瓣评分 7.9/10 (64489人评价)
◎豆瓣链接 https://movie.douban.com/subject/26756049/
◎片  长 120分钟
◎导  演 克雷格·吉勒斯佩 Craig Gillespie
◎编  剧 斯蒂芬·罗杰斯 Steven Rogers
◎演  员 玛格特·罗比 Margot Robbie
       塞巴斯蒂安·斯坦 Sebastian Stan
       艾莉森·珍妮 Allison Janney
       凯特琳·卡弗 Caitlin Carver
       麦肯娜·格瑞丝 Mckenna Grace
       鲍比·坎纳瓦尔 Bobby Cannavale
       博亚娜·诺瓦科维奇 Bojana Novaković
       朱丽安妮·尼科尔森 Julianne Nicholson
       凯萨琳·戴尔 Catherine Dyer
       保罗·沃尔特·豪泽 Paul Walter Hauser
       约书亚·米克尔 Joshua Mikel
       埃文·乔治·沃拉泽里斯 Evan George Vourazeris
       卡拉·曼泰拉 Cara Mantella
       杰森·戴维斯 Jason Davis
       凯莉·弗雷泽 Kelly Frazier
       安东尼·雷诺兹 Anthony Reynolds
       杰森·麦克唐纳 Jason MacDonald
       迈尔斯·穆森登 Miles Mussenden

◎标  签 传记 / 美国 / 女性 / 花样滑冰 / 体育 / 运动 / 黑色幽默 / 2017

◎简  介
    托尼亚(玛歌特·罗比 Margot Robbie 饰)成长在一个破碎的家庭之中,和母亲(阿丽森·詹尼 Allison Janney 饰)过着相依为命的日子。托尼亚的母亲是一个冷若冰霜而又独断专行的女人,她在年仅3岁的托尼亚身上看到了她成为一名花滑运动员的潜力,就这样,小小的女孩被送往了由戴安(朱丽安妮·尼科尔森 Julianne Nicholson 饰)执教的花滑队里,开始了训练。                                    
                                  托尼亚的全部童年几乎都是在冰上度过的,直到有一天她在溜冰场遇见了名为杰夫(塞巴斯蒂安·斯坦 Sebastian Stan 饰)的男子,两人很快就坠入了爱河。杰夫改变了托尼亚的人生,却也成为了她的灾难,从此托尼亚要面对的,除了日益艰巨的训练外,还有来自杰夫的拳脚。在一场比赛中,托尼亚完成了冰上三圈半的跳跃动作,成为了美国第一个完成了这个动作的运动员,托尼亚因此名声大噪。
  1. ##### MediaInfo ######
  2. General
  3. Unique ID                                : 300502389172193902474038012074716514708 (0xE212A7ABE52FA9C805A6B4FBAA8F4994)
  4. Complete name                            : I.Tonya.2017.BluRay.1080p.x265.10bit-MiniHD.mkv
  5. Format                                   : Matroska
  6. Format version                           : Version 4
  7. File size                                : 5.23 GiB
  8. Duration                                 : 1 h 59 min
  9. Overall bit rate                         : 6 239 kb/s
  10. Encoded date                             : UTC 2018-03-14 02:26:46
  11. Writing application                      : mkvmerge v21.0.0 ('Tardigrades Will Inherit The Earth') 64-bit
  12. Writing library                          : libebml v1.3.5 + libmatroska v1.4.8
  13. Video
  14. ID                                       : 1
  15. Format                                   : HEVC
  16. Format/Info                              : High Efficiency Video Coding
  17. Format profile                           : Main 10@L4@High
  18. Codec ID                                 : V_MPEGH/ISO/HEVC
  19. Duration                                 : 1 h 59 min
  20. Bit rate                                 : 5 561 kb/s
  21. Width                                    : 1 920 pixels
  22. Height                                   : 804 pixels
  23. Display aspect ratio                     : 2.40:1
  24. Frame rate mode                          : Constant
  25. Frame rate                               : 23.976 (24000/1001/53354) FPS
  26. Color space                              : YUV
  27. Chroma subsampling                       : 4:2:0
  28. Bit depth                                : 10 bits
  29. Bits/(Pixel*Frame)                       : 0.150
  30. Stream size                              : 4.66 GiB (89%)
  31. Title                                    : 视频
  32. Default                                  : Yes
  33. Forced                                   : No
  34. Color range                              : Limited
  35. Color primaries                          : BT.709
  36. Transfer characteristics                 : BT.709
  37. Matrix coefficients                      : BT.709
  38. Audio
  39. ID                                       : 2
  40. Format                                   : AC-3
  41. Format/Info                              : Audio Coding 3
  42. Commercial name                          : Dolby Digital
  43. Codec ID                                 : A_AC3
  44. Duration                                 : 1 h 59 min
  45. Bit rate mode                            : Constant
  46. Bit rate                                 : 640 kb/s
  47. Channel(s)                               : 6 channels
  48. Channel layout                           : L R C LFE Ls Rs
  49. Sampling rate                            : 48.0 kHz
  50. Frame rate                               : 31.250 FPS (1536 SPF)
  51. Compression mode                         : Lossy
  52. Stream size                              : 549 MiB (10%)
  53. Title                                    : 英语AC3-5.1@640kbps
  54. Language                                 : English
  55. Service kind                             : Complete Main
  56. Default                                  : Yes
  57. Forced                                   : No
  58. Text #1
  59. ID                                       : 3
  60. Format                                   : PGS
  61. Muxing mode                              : zlib
  62. Codec ID                                 : S_HDMV/PGS
  63. Codec ID/Info                            : Picture based subtitle format used on BDs/HD-DVDs
  64. Duration                                 : 1 h 51 min
  65. Bit rate                                 : 25.5 kb/s
  66. Count of elements                        : 1984
  67. Stream size                              : 20.4 MiB (0%)
  68. Title                                    : 简中
  69. Language                                 : Chinese
  70. Default                                  : Yes
  71. Forced                                   : No
  72. Text #2
  73. ID                                       : 4
  74. Format                                   : PGS
  75. Muxing mode                              : zlib
  76. Codec ID                                 : S_HDMV/PGS
  77. Codec ID/Info                            : Picture based subtitle format used on BDs/HD-DVDs
  78. Duration                                 : 1 h 51 min
  79. Bit rate                                 : 26.5 kb/s
  80. Count of elements                        : 1984
  81. Stream size                              : 21.2 MiB (0%)
  82. Title                                    : 繁中
  83. Language                                 : Chinese
  84. Default                                  : No
  85. Forced                                   : No
  86. Text #3
  87. ID                                       : 5
  88. Format                                   : PGS
  89. Muxing mode                              : zlib
  90. Codec ID                                 : S_HDMV/PGS
  91. Codec ID/Info                            : Picture based subtitle format used on BDs/HD-DVDs
  92. Duration                                 : 1 h 59 min
  93. Bit rate                                 : 28.2 kb/s
  94. Count of elements                        : 4400
  95. Stream size                              : 24.1 MiB (0%)
  96. Title                                    : 英语
  97. Language                                 : English
  98. Default                                  : No
  99. Forced                                   : No
  100. Menu
  101. 00:00:00.000                             : en:Chapter 01
  102. 00:18:16.804                             : en:Chapter 02
  103. 00:36:27.685                             : en:Chapter 03
  104. 00:55:08.514                             : en:Chapter 04
  105. 01:11:49.597                             : en:Chapter 05
  106. 01:24:35.153                             : en:Chapter 06
  107. 01:36:46.968                             : en:Chapter 07
  108. 01:52:34.289                             : en:Chapter 08





此处一般会放置磁力链或种子下载链接,不过此链接需要注册会员才能看到,点击“立即注册”
磁力链下载【下载链接仅对注册会员开放,登陆后可见】
BT9527电影天堂 1、BT9527电影天堂提供的BT文件均来源于互联网抓取,只供网友学习交流、技术提升使用。
2、我们遵守BitTorrent点对点协议原则,任何版权问题请联系原资源发布商,我们不处理任何版权纠纷,谢谢!如有争议请联系邮箱:BT9527#hotmail.com(#换成@)
3、如果您发现某页面或地址有错误,请联系站长邮箱BT9527#hotmail.com(#换成@),我们会尽快处理。您的热心是对BT9527电影天堂最大的支持。
4、本站建议去正规影院观看电影以支持电影行业发展。
最新回复 (0)

你可以在 登录 or 注册 后,对此帖发表评论!

返回
发新帖