憨豆的黄金周[简繁英字幕].Mr.Bean's.Holiday.2007.Bluray.1080p.x265.10bit.2Audio-MiniHD 5.27GB

版主小s 1天前 19

✔资源类型:暂未分类   ✔电影年份:2007   ✔电影地区:欧美   ✔电影分类:喜剧

◎标  题 憨豆的黄金周
◎译  名 憨豆先生2法国假期 / 豆豆假期 / 憨豆放大假 / 憨豆先生的假期 / Bean 2
◎片  名 Mr. Bean's Holiday
◎年  代 2007
◎产  地 英国 / 法国 / 德国
◎类  别 喜剧
◎语  言 英语 / 法语 / 西班牙语 / 俄语
◎上映日期 2007-07-27(中国大陆) / 2007-03-30(英国)
◎IMDb评分 6.4/10 (123982人评价)
◎IMDb链接 https://www.imdb.com/title/tt0453451/
◎豆瓣评分 8.1/10 (119438人评价)
◎豆瓣链接 https://movie.douban.com/subject/1829654/
◎片  长 90分钟
◎导  演 史蒂夫·班德莱克 Steve Bendelack
◎编  剧 哈密斯·麦克尔 Hamish McColl
       罗宾·德里斯科尔 Robin Driscoll
       理查德·柯蒂斯 Richard Curtis
       罗温·艾金森 Rowan Atkinson
       西蒙·迈克伯尼 Simon McBurney
◎演  员 罗温·艾金森 Rowan Atkinson
       马克思·鲍德里 Maxim Baldry
       埃玛·德·科内 Emma de Caunes
       威廉·达福 Willem Dafoe
       让·雷谢夫 Jean Rochefort
       卡瑞尔·罗登 Karel Roden
       于尔班·康塞利埃 Urbain Cancelier
       尼可拉斯·布里代 Nicolas Bridet
       茱莉·费瑞尔 Julie Ferrier
       安东尼·德科内 Antoine de Caunes
       阿尔塞纳·莫斯卡 Arsène Mosca
       史蒂夫·佩姆伯顿 Steve Pemberton
       弗拉米妮亚·辛克 Flaminia Cinque
       朱利安·科特罗 Julien Cottereau
       斯特凡·德巴 Stéphane Debac
       Pierre-Benoist Varoclier Pierre-Benoist Varoclier
       克林特·戴尔 Clint Dyer
        Steve Campos
       普雷斯顿·尼曼 Preston Nyman
       蒂姆·贝文 Tim Bevan
       卡罗琳·休伊特 Caroline Hewitt
       理查德·柯蒂斯 Richard Curtis
       埃里克·菲尔纳 Eric Fellner
       Raphaël Benoliel Raphaël Benoliel
       西蒙·迈克伯尼 Simon McBurney
       霍华德·古道尔 Howard Goodall
       Baz Irvine Baz Irvine
       Tony Cranstoun Tony Cranstoun
       妮娜·古德 Nina Gold
       Pierre-Yves Gayraud Pierre-Yves Gayraud
       苏珊·詹森 Suzanne Jansen
       约翰·霍格沃德 Jan Hogevold
       Darren Agnew Darren Agnew
       丹妮尔·纳达尔 Danielle Nadal
       詹姆斯·D·弗莱明 James D. Fleming
       杰森·霍尔利 Jason Horley
       乔纳森·福克纳尔 Jonathan Fawkner
       Simon Whalley Simon Whalley
       Lorna Paterson Lorna Paterson
       萨姆·奥斯伯恩 Sam Osborne
       西里奥·昆塔瓦莱 Sirio Quintavalle

◎简  介
  憨豆先生(罗温•艾金森 Rowan Atkinson 饰)总是傻人有傻福。他买彩票意外获得前往法国度假的机会。憨豆先生马上收拾好行囊,前往法国圆他的先锋派电影之梦!抵达巴黎后,憨豆先生遇到了一位来自俄罗斯的戛纳电影节评委。奇思妙想的憨豆希望能拍摄一部关于自己的先锋派电影,于是做事从来不顾后果的他带上了与那位俄罗斯评委走散的儿子,两人跳上了火车,路上扮演一对父子,却因语言不通大闹笑话,最后陷入了困境。                                    
                                憨豆最后会被作为“绑架者”被捕还是凭借他的影片入围嘎纳,夺得大奖?
  1. ##### MediaInfo ######
  2. General
  3. Unique ID                                : 197590849741902457324718899842823179010 (0x94A69D0973DC1FF9A12BF8FE74BF4B02)
  4. Complete name                            : Mr.Bean's.Holiday.2007.Bluray.1080p.x265.10bit.2Audio-MiniHD.mkv
  5. Format                                   : Matroska
  6. Format version                           : Version 4
  7. File size                                : 5.27 GiB
  8. Duration                                 : 1 h 29 min
  9. Overall bit rate                         : 8 425 kb/s
  10. Encoded date                             : UTC 2018-01-13 06:38:22
  11. Writing application                      : mkvmerge v8.5.2 ('Crosses') 32bit
  12. Writing library                          : libebml v1.3.3 + libmatroska v1.4.4
  13. Video
  14. ID                                       : 1
  15. Format                                   : HEVC
  16. Format/Info                              : High Efficiency Video Coding
  17. Format profile                           : Main 10@L4@Main
  18. Codec ID                                 : V_MPEGH/ISO/HEVC
  19. Duration                                 : 1 h 29 min
  20. Bit rate                                 : 7 393 kb/s
  21. Width                                    : 1 920 pixels
  22. Height                                   : 1 080 pixels
  23. Display aspect ratio                     : 16:9
  24. Frame rate mode                          : Constant
  25. Frame rate                               : 23.976 (24000/1001/53354) FPS
  26. Color space                              : YUV
  27. Chroma subsampling                       : 4:2:0
  28. Bit depth                                : 10 bits
  29. Bits/(Pixel*Frame)                       : 0.149
  30. Stream size                              : 4.63 GiB (88%)
  31. Writing library                          : x265 2.6+14-f09f3b4a2115:[Windows][GCC 7.2.0][64 bit] 10bit
  32. Encoding settings                        : cpuid=533541173503 / frame-threads=2 / numa-pools=4 / wpp / no-pmode / no-pme / no-psnr / no-ssim / log-level=2 / input-csp=1 / input-res=1920x1080 / interlace=0 / total-frames=128866 / level-idc=0 / high-tier=1 / uhd-bd=0 / ref=5 / no-allow-non-conformance / no-repeat-headers / annexb / no-aud / no-hrd / info / hash=0 / no-temporal-layers / no-open-gop / min-keyint=1 / keyint=360 / gop-lookahead=0 / bframes=8 / b-adapt=2 / b-pyramid / bframe-bias=0 / rc-lookahead=60 / lookahead-slices=4 / NTMzNTQ=uuDQuD2mJt9fsCf / scenecut=40 / no-intra-refresh / ctu=32 / min-cu-size=8 / no-rect / no-amp / max-tu-size=16 / tu-inter-depth=2 / tu-intra-depth=2 / limit-tu=4 / rdoq-level=2 / dynamic-rd=0.00 / ssim-rd / signhide / no-tskip / nr-intra=0 / nr-inter=0 / no-constrained-intra / no-strong-intra-smoothing / max-merge=3 / limit-refs=2 / limit-modes / me=3 / subme=5 / merange=25 / temporal-mvp / weightp / weightb / no-analyze-src-pics / deblock=-1:-1 / no-sao / no-sao-non-deblock / rd=4 / no-early-skip / no-rskip / no-fast-intra / no-tskip-fast / no-cu-lossless / b-intra / no-splitrd-skip / rdpenalty=1 / psy-rd=0.00 / psy-rdoq=5.00 / no-rd-refine / analysis-reuse-mode=0 / no-lossless / cbqpoffs=-2 / crqpoffs=-2 / rc=crf / crf=21.0 / qcomp=0.70 / qpstep=4 / stats-write=0 / stats-read=0 / ipratio=1.40 / pbratio=1.30 / aq-mode=2 / aq-strength=0.80 / cutree / zone-count=0 / no-strict-cbr / qg-size=16 / no-rc-grain / qpmax=69 / qpmin=0 / no-const-vbv / sar=1 / overscan=0 / videoformat=5 / range=0 / colorprim=1 / transfer=2 / colormatrix=2 / chromaloc=0 / display-window=0 / max-cll=0,0 / min-luma=0 / max-luma=1023 / log2-max-poc-lsb=8 / vui-timing-info / vui-hrd-info / slices=1 / no-opt-qp-pps / no-opt-ref-list-length-pps / no-multi-pass-opt-rps / scenecut-bias=0.05 / no-opt-cu-delta-qp / no-aq-motion / no-hdr / no-hdr-opt / no-dhdr10-opt / analysis-reuse-level=5 / scale-factor=0 / refine-intra=0 / refine-inter=0 / refine-mv=0 / no-limit-sao / ctu-info=0 / no-lowpass-dct / refine-mv-type=0 / copy-pic=1
  33. Default                                  : Yes
  34. Forced                                   : No
  35. Color range                              : Limited
  36. Color primaries                          : BT.709
  37. Audio #1
  38. ID                                       : 2
  39. Format                                   : AC-3
  40. Format/Info                              : Audio Coding 3
  41. Commercial name                          : Dolby Digital
  42. Codec ID                                 : A_AC3
  43. Duration                                 : 1 h 29 min
  44. Bit rate mode                            : Constant
  45. Bit rate                                 : 640 kb/s
  46. Channel(s)                               : 6 channels
  47. Channel layout                           : L R C LFE Ls Rs
  48. Sampling rate                            : 48.0 kHz
  49. Frame rate                               : 31.250 FPS (1536 SPF)
  50. Compression mode                         : Lossy
  51. Stream size                              : 410 MiB (8%)
  52. Service kind                             : Complete Main
  53. Default                                  : Yes
  54. Forced                                   : No
  55. Audio #2
  56. ID                                       : 3
  57. Format                                   : AC-3
  58. Format/Info                              : Audio Coding 3
  59. Commercial name                          : Dolby Digital
  60. Codec ID                                 : A_AC3
  61. Duration                                 : 1 h 29 min
  62. Bit rate mode                            : Constant
  63. Bit rate                                 : 384 kb/s
  64. Channel(s)                               : 6 channels
  65. Channel layout                           : L R C LFE Ls Rs
  66. Sampling rate                            : 48.0 kHz
  67. Frame rate                               : 31.250 FPS (1536 SPF)
  68. Compression mode                         : Lossy
  69. Stream size                              : 246 MiB (5%)
  70. Service kind                             : Complete Main
  71. Default                                  : No
  72. Forced                                   : No
  73. Text #1
  74. ID                                       : 4
  75. Format                                   : ASS
  76. Codec ID                                 : S_TEXT/ASS
  77. Codec ID/Info                            : Advanced Sub Station Alpha
  78. Duration                                 : 1 h 18 min
  79. Bit rate                                 : 60 b/s
  80. Count of elements                        : 383
  81. Compression mode                         : Lossless
  82. Stream size                              : 35.1 KiB (0%)
  83. Title                                    : ENG&CHS
  84. Language                                 : Chinese
  85. Default                                  : Yes
  86. Forced                                   : No
  87. Text #2
  88. ID                                       : 5
  89. Format                                   : PGS
  90. Muxing mode                              : zlib
  91. Codec ID                                 : S_HDMV/PGS
  92. Codec ID/Info                            : Picture based subtitle format used on BDs/HD-DVDs
  93. Duration                                 : 1 h 28 min
  94. Bit rate                                 : 3 031 b/s
  95. Count of elements                        : 697
  96. Stream size                              : 1.93 MiB (0%)
  97. Title                                    : CHT
  98. Language                                 : Chinese
  99. Default                                  : No
  100. Forced                                   : No
  101. Text #3
  102. ID                                       : 6
  103. Format                                   : PGS
  104. Muxing mode                              : zlib
  105. Codec ID                                 : S_HDMV/PGS
  106. Codec ID/Info                            : Picture based subtitle format used on BDs/HD-DVDs
  107. Duration                                 : 1 h 21 min
  108. Bit rate                                 : 4 559 b/s
  109. Count of elements                        : 991
  110. Stream size                              : 2.65 MiB (0%)
  111. Title                                    : ENG
  112. Language                                 : English
  113. Default                                  : No
  114. Forced                                   : No
  115. Menu
  116. 00:00:00.000                             : en:00:00:00.000
  117. 00:03:32.087                             : en:00:03:32.087
  118. 00:06:19.838                             : en:00:06:19.838
  119. 00:10:55.238                             : en:00:10:55.238
  120. 00:16:17.226                             : en:00:16:17.226
  121. 00:20:51.292                             : en:00:20:51.292
  122. 00:24:46.026                             : en:00:24:46.026
  123. 00:28:42.638                             : en:00:28:42.638
  124. 00:31:29.638                             : en:00:31:29.638
  125. 00:36:29.437                             : en:00:36:29.437
  126. 00:42:16.242                             : en:00:42:16.242
  127. 00:47:42.276                             : en:00:47:42.276
  128. 00:52:55.923                             : en:00:52:55.923
  129. 00:56:40.814                             : en:00:56:40.814
  130. 00:59:40.410                             : en:00:59:40.410
  131. 01:04:59.020                             : en:01:04:59.020
  132. 01:09:31.959                             : en:01:09:31.959
  133. 01:14:19.121                             : en:01:14:19.121
  134. 01:19:37.606                             : en:01:19:37.606
  135. 01:22:40.956                             : en:01:22:40.956





此处一般会放置磁力链或种子下载链接,不过此链接需要注册会员才能看到,点击“立即注册”
磁力链下载【下载链接仅对注册会员开放,登陆后可见】
BT9527电影天堂 1、BT9527电影天堂提供的BT文件均来源于互联网抓取,只供网友学习交流、技术提升使用。
2、我们遵守BitTorrent点对点协议原则,任何版权问题请联系原资源发布商,我们不处理任何版权纠纷,谢谢!如有争议请联系邮箱:BT9527#hotmail.com(#换成@)
3、如果您发现某页面或地址有错误,请联系站长邮箱BT9527#hotmail.com(#换成@),我们会尽快处理。您的热心是对BT9527电影天堂最大的支持。
4、本站建议去正规影院观看电影以支持电影行业发展。
最新回复 (0)

你可以在 登录 or 注册 后,对此帖发表评论!

返回
发新帖