惊天战神[简繁英字幕].Immortals.2011.BluRay.1080p.x265.10bit-MiniHD 5.13GB

版主小s 4天前 54

✔资源类型:暂未分类   ✔电影年份:2011   ✔电影地区:欧美   ✔电影分类:剧情

◎标  题 惊天战神
◎译  名 众神 / 天魔战神(港) / 战神世纪3D(台) / 众神之战 / 战争的黎明 / 不死战神 / War of the Gods / Dawn of War
◎片  名 Immortals
◎年  代 2011
◎产  地 美国 / 英国 / 加拿大
◎类  别 剧情 / 动作 / 奇幻
◎语  言 英语
◎上映日期 2011-11-11(美国 / 中国大陆)
◎IMDb评分 6/10 (165096人评价)
◎IMDb链接 https://www.imdb.com/title/tt1253864/
◎豆瓣评分 5.8/10 (23624人评价)
◎豆瓣链接 https://movie.douban.com/subject/3131599/
◎片  长 110分钟
◎导  演 塔西姆·辛 Tarsem Singh
◎编  剧 查理·帕拉伯尼得斯 Charley Parlapanides
       维拉斯·帕拉伯尼得斯 Vlas Parlapanides
◎演  员 亨利·卡维尔 Henry Cavill
       米基·洛克 Mickey Rourke
       约翰·赫特 John Hurt
       卢克·伊万斯 Luke Evans
       斯蒂芬·多尔夫 Stephen Dorff
       芙蕾达·平托 Freida Pinto
       凯南·鲁兹 Kellan Lutz
       伊莎贝尔·卢卡斯 Isabel Lucas
       约瑟夫·摩根 Joseph Morgan
       柯里·瑟威尔 Corey Sevier
       史蒂芬·麦克哈蒂 Stephen McHattie
       罗伯特·梅耶 Robert Maillet
       彼得·斯戴宾斯 Peter Stebbings
       丹尼尔·沙曼 Daniel Sharman
       马克·马戈利斯 Mark Margolis
       卡内赫迪奥·霍恩 Kaniehtiio Horn
       帕特里克·萨邦圭 Patrick Sabongui
       艾伦·范·斯普朗 Alan Van Sprang
       阿伊莎·伊萨 Ayisha Issa
       罗曼诺·欧萨里 Romano Orzari
       安妮·戴-琼斯 Anne Day-Jones
       马修·G·泰勒 Matthew G. Taylor

◎标  签 神话 / 美国 / 奇幻 / 魔幻 / 史诗 / 众神之战 / 2011 / 美国电影

◎简  介
    天界之战中,奥林匹斯山的众神击败了邪恶的泰坦神,并将他们囚禁于地下。传说只有威力无穷的厄皮洛斯神弓能够释放泰坦,但这把神器却在天界大战中遗失在人间。多年后,权欲熏心、冷酷嗜血的海恩波利国王(米基·洛克 Mickey Rourke 饰)推行暴权,妄图踏平希腊、毁灭神迹。                                    
                                  西柏林修道院美丽的先知帕德拉( 芙蕾达·平托 Freida Pinto 饰)能够预知未来,在海恩波利的囚牢中她感受到了一个受神指引的年轻人忒修斯(亨利·卡维尔 Henry Cavill  饰)将拿到神弓并和海恩波利国王联手。此时的忒修斯却发誓要为在海恩波利的袭击中死去的母亲报仇。                                    
                                  忒修斯正如预言找到了神弓,但不幸却落入了海恩波利国王的手中,国王兵临城下,希腊军势单力薄,高大的城墙在手持神弓的海恩波利国王面前也不堪一击。恐怖的泰坦即将被释放,希腊危在旦夕,出身低微的忒修斯虽然勇武,但在同族中却屡遭唾弃,此时,海恩波利国王却向忒修斯伸出了橄榄枝……
  1. ##### MediaInfo ######
  2. General
  3. Unique ID                                : 142278021983634885063152400582726360148 (0x6B09C01370E83DECC3E6AD1967B39C54)
  4. Complete name                            : Immortals.2011.BluRay.1080p.x265.10bit-MiniHD.mkv
  5. Format                                   : Matroska
  6. Format version                           : Version 4
  7. File size                                : 5.13 GiB
  8. Duration                                 : 1 h 50 min
  9. Overall bit rate                         : 6 647 kb/s
  10. Encoded date                             : UTC 2018-01-28 17:02:50
  11. Writing application                      : mkvmerge v20.0.0 ('I Am The Sun') 64-bit
  12. Writing library                          : libebml v1.3.5 + libmatroska v1.4.8
  13. Video
  14. ID                                       : 1
  15. Format                                   : HEVC
  16. Format/Info                              : High Efficiency Video Coding
  17. Format profile                           : Main 10@L4@Main
  18. Codec ID                                 : V_MPEGH/ISO/HEVC
  19. Duration                                 : 1 h 50 min
  20. Bit rate                                 : 5 981 kb/s
  21. Width                                    : 1 912 pixels
  22. Height                                   : 1 032 pixels
  23. Display aspect ratio                     : 1.85:1
  24. Frame rate mode                          : Constant
  25. Frame rate                               : 23.976 (24000/1001/53354) FPS
  26. Color space                              : YUV
  27. Chroma subsampling                       : 4:2:0
  28. Bit depth                                : 10 bits
  29. Bits/(Pixel*Frame)                       : 0.126
  30. Stream size                              : 4.61 GiB (90%)
  31. Writing library                          : x265 2.6+2-32e6f04b8713:[Windows][GCC 7.2.0][64 bit] 10bit
  32. Encoding settings                        : cpuid=533541173503 / frame-threads=3 / numa-pools=8 / wpp / no-pmode / no-pme / no-psnr / no-ssim / log-level=2 / input-csp=1 / input-res=1912x1032 / interlace=0 / total-frames=158884 / level-idc=0 / high-tier=1 / uhd-bd=0 / ref=5 / no-allow-non-conformance / no-repeat-headers / annexb / no-aud / no-hrd / info / hash=0 / no-temporal-layers / no-open-gop / min-keyint=1 / keyint=360 / bframes=8 / b-adapt=2 / b-pyramid / bframe-bias=0 / rc-lookahead=60 / lookahead-slices=4 / NTMzNTQ=uuDQuD2mJt9fsCf / scenecut=40 / no-intra-refresh / ctu=32 / min-cu-size=8 / rect / no-amp / max-tu-size=16 / tu-inter-depth=2 / tu-intra-depth=2 / limit-tu=4 / rdoq-level=1 / dynamic-rd=0.00 / ssim-rd / signhide / no-tskip / nr-intra=0 / nr-inter=0 / no-constrained-intra / no-strong-intra-smoothing / max-merge=3 / limit-refs=2 / limit-modes / me=3 / subme=5 / merange=25 / temporal-mvp / weightp / weightb / no-analyze-src-pics / deblock=-1:-1 / no-sao / no-sao-non-deblock / rd=4 / no-early-skip / rskip / no-fast-intra / no-tskip-fast / no-cu-lossless / b-intra / no-splitrd-skip / rdpenalty=1 / psy-rd=0.00 / psy-rdoq=5.00 / no-rd-refine / analysis-reuse-mode=0 / no-lossless / cbqpoffs=-2 / crqpoffs=-2 / rc=crf / crf=18.0 / qcomp=0.70 / qpstep=4 / stats-write=0 / stats-read=0 / ipratio=1.40 / pbratio=1.30 / aq-mode=3 / aq-strength=0.80 / cutree / zone-count=0 / no-strict-cbr / qg-size=16 / no-rc-grain / qpmax=69 / qpmin=0 / no-const-vbv / sar=1 / overscan=0 / videoformat=5 / range=0 / colorprim=1 / transfer=2 / colormatrix=2 / chromaloc=0 / display-window=0 / max-cll=0,0 / min-luma=0 / max-luma=1023 / log2-max-poc-lsb=8 / vui-timing-info / vui-hrd-info / slices=1 / no-opt-qp-pps / no-opt-ref-list-length-pps / no-multi-pass-opt-rps / scenecut-bias=0.05 / no-opt-cu-delta-qp / no-aq-motion / no-hdr / no-hdr-opt / no-dhdr10-opt / analysis-reuse-level=5 / scale-factor=0 / refine-intra=0 / refine-inter=0 / refine-mv=0 / no-limit-sao / ctu-info=0 / no-lowpass-dct / refine-mv-type=0 / copy-pic=1
  33. Default                                  : Yes
  34. Forced                                   : No
  35. Color range                              : Limited
  36. Color primaries                          : BT.709
  37. Audio
  38. ID                                       : 2
  39. Format                                   : AC-3
  40. Format/Info                              : Audio Coding 3
  41. Commercial name                          : Dolby Digital
  42. Codec ID                                 : A_AC3
  43. Duration                                 : 1 h 50 min
  44. Bit rate mode                            : Constant
  45. Bit rate                                 : 640 kb/s
  46. Channel(s)                               : 6 channels
  47. Channel layout                           : L R C LFE Ls Rs
  48. Sampling rate                            : 48.0 kHz
  49. Frame rate                               : 31.250 FPS (1536 SPF)
  50. Compression mode                         : Lossy
  51. Stream size                              : 506 MiB (10%)
  52. Language                                 : English
  53. Service kind                             : Complete Main
  54. Default                                  : Yes
  55. Forced                                   : No
  56. Text #1
  57. ID                                       : 3
  58. Format                                   : PGS
  59. Muxing mode                              : zlib
  60. Codec ID                                 : S_HDMV/PGS
  61. Codec ID/Info                            : Picture based subtitle format used on BDs/HD-DVDs
  62. Duration                                 : 1 h 40 min
  63. Bit rate                                 : 25.1 kb/s
  64. Count of elements                        : 1451
  65. Stream size                              : 18.0 MiB (0%)
  66. Title                                    : 简英
  67. Language                                 : Chinese
  68. Default                                  : Yes
  69. Forced                                   : No
  70. Text #2
  71. ID                                       : 4
  72. Format                                   : PGS
  73. Muxing mode                              : zlib
  74. Codec ID                                 : S_HDMV/PGS
  75. Codec ID/Info                            : Picture based subtitle format used on BDs/HD-DVDs
  76. Duration                                 : 1 h 40 min
  77. Bit rate                                 : 15.1 kb/s
  78. Count of elements                        : 1451
  79. Stream size                              : 10.9 MiB (0%)
  80. Title                                    : 繁英
  81. Language                                 : Chinese
  82. Default                                  : No
  83. Forced                                   : No
  84. Text #3
  85. ID                                       : 5
  86. Format                                   : PGS
  87. Muxing mode                              : zlib
  88. Codec ID                                 : S_HDMV/PGS
  89. Codec ID/Info                            : Picture based subtitle format used on BDs/HD-DVDs
  90. Duration                                 : 1 h 38 min
  91. Bit rate                                 : 17.0 kb/s
  92. Count of elements                        : 1342
  93. Stream size                              : 12.0 MiB (0%)
  94. Title                                    : 英语
  95. Language                                 : English
  96. Default                                  : No
  97. Forced                                   : No





此处一般会放置磁力链或种子下载链接,不过此链接需要注册会员才能看到,点击“立即注册”
磁力链下载【下载链接仅对注册会员开放,登陆后可见】
BT9527电影天堂 1、BT9527电影天堂提供的BT文件均来源于互联网抓取,只供网友学习交流、技术提升使用。
2、我们遵守BitTorrent点对点协议原则,任何版权问题请联系原资源发布商,我们不处理任何版权纠纷,谢谢!如有争议请联系邮箱:BT9527#hotmail.com(#换成@)
3、如果您发现某页面或地址有错误,请联系站长邮箱BT9527#hotmail.com(#换成@),我们会尽快处理。您的热心是对BT9527电影天堂最大的支持。
4、本站建议去正规影院观看电影以支持电影行业发展。
最新回复 (0)

你可以在 登录 or 注册 后,对此帖发表评论!

返回
发新帖