惊天危机[国英多音轨/简繁英字幕].White.House.Down.2013.CEE.BluRay.1080p.x265.10bit.2Audio-MiniHD 8.09GB

版主小s 1天前 25

✔资源类型:暂未分类   ✔电影年份:2013   ✔电影地区:欧美   ✔电影分类:动作

◎标  题 惊天危机
◎译  名 白宫末日(台) / 白宫坠落
◎片  名 White House Down
◎年  代 2013
◎产  地 美国
◎类  别 动作 / 灾难
◎语  言 英语
◎上映日期 2013-07-22(中国大陆) / 2013-06-28(美国)
◎IMDb评分 6.3/10 (214525人评价)
◎IMDb链接 https://www.imdb.com/title/tt2334879/
◎豆瓣评分 7.3/10 (118384人评价)
◎豆瓣链接 https://movie.douban.com/subject/10746175/
◎片  长 132分钟(中国大陆) / 131分钟(美国)
◎导  演 罗兰·艾默里奇 Roland Emmerich
◎编  剧 詹姆斯·范德比尔特 James Vanderbilt
◎演  员 查宁·塔图姆 Channing Tatum
       杰米·福克斯 Jamie Foxx
       玛吉·吉伦哈尔 Maggie Gyllenhaal
       杰森·克拉克 Jason Clarke
       理查德·詹金斯 Richard Jenkins
       乔伊·金 Joey King
       詹姆斯·伍兹 James Woods
       尼古拉斯·莱特 Nicolas Wright
       吉米·辛普森 Jimmi Simpson
       迈克尔·墨菲 Michael Murphy
       蕾切尔·勒费夫尔 Rachelle Lefevre
       兰斯·莱迪克 Lance Reddick
       乔伊·克莱恩 Joey Klein
       帕特里克·萨邦圭 Patrick Sabongui
       安德里亚斯·艾波吉斯 Andreas Apergis
       夸西·宋桂 Kwasi Songui
       凯尔·盖特豪斯 Kyle Gatehouse
       金锋 Feng Jin
       杰克·韦伯 Jake Weber
       尼娜·劳伦 Nina Lauren
       彼得·雅各布森 Peter Jacobson
       西蒙·诺斯伍德 Simon Northwood
       嘉丝莉·毕薇斯 Garcelle Beauvais
       马特·克拉文 Matt Craven
       凯文·兰金 Kevin Rankin
       杰姬·基瑞 Jackie Geary
       法尔克·亨特切尔 Falk Hentschel

◎标  签 动作 / 美国 / 白宫 / 犯罪 / 2013 / 政治 / 灾难 / 搞笑

◎简  介
    年轻的凯尔(查宁·塔图姆 Channing Tatum 饰)从阿富汗前线退伍后在国会安保部门工作,他的终极梦想是保护美国总统索亚(杰米·福克斯 Jamie Foxx 饰)。凯尔与离婚的妻子育有一个正在上小学的女儿艾米莉(乔伊·金 Joey King 饰),她因为父亲入伍的经历变成了一个政治迷,尤其对索亚总统和白宫极其崇拜。凯尔为了让女儿高兴承诺带她参加白宫内部一日游,顺便在当天去应征由卡罗(玛吉·吉伦哈尔 Maggie Gyllenhaal 饰)领导的特勤部门的工作。可是就在同一天,一伙身份不明的武装分子乔装潜入白宫并对索亚总统进行搜捕,一场腥风血雨蓄势待发。正在陪女儿参观的凯尔能否临危不惧解救总统?凯尔是否能同时保护女儿?而这场动机不明的暴力背后是否掩盖着不为人知的肮脏秘密?
  1. ##### MediaInfo ######
  2. General
  3. Unique ID                                : 307054554965903287970307556486150223646 (0xE7008E62EC152FFDDFBECF8F66A1F71E)
  4. Complete name                            : White.House.Down.2013.CEE.BluRay.1080p.x265.10bit.2Audio-MiniHD.mkv
  5. Format                                   : Matroska
  6. Format version                           : Version 4
  7. File size                                : 8.09 GiB
  8. Duration                                 : 2 h 11 min
  9. Overall bit rate                         : 8 804 kb/s
  10. Encoded date                             : UTC 2018-02-13 13:11:46
  11. Writing application                      : mkvmerge v20.0.0 ('I Am The Sun') 64-bit
  12. Writing library                          : libebml v1.3.5 + libmatroska v1.4.8
  13. Video
  14. ID                                       : 1
  15. Format                                   : HEVC
  16. Format/Info                              : High Efficiency Video Coding
  17. Format profile                           : Main 10@L4@Main
  18. Codec ID                                 : V_MPEGH/ISO/HEVC
  19. Duration                                 : 2 h 11 min
  20. Bit rate                                 : 7 361 kb/s
  21. Width                                    : 1 920 pixels
  22. Height                                   : 802 pixels
  23. Display aspect ratio                     : 2.40:1
  24. Frame rate mode                          : Constant
  25. Frame rate                               : 23.976 (24000/1001/53354) FPS
  26. Color space                              : YUV
  27. Chroma subsampling                       : 4:2:0
  28. Bit depth                                : 10 bits
  29. Bits/(Pixel*Frame)                       : 0.199
  30. Stream size                              : 6.76 GiB (84%)
  31. Writing library                          : x265 2.6+2-32e6f04b8713:[Windows][GCC 7.2.0][64 bit] 10bit
  32. Encoding settings                        : cpuid=533541173503 / frame-threads=3 / numa-pools=8 / wpp / no-pmode / no-pme / no-psnr / no-ssim / log-level=2 / input-csp=1 / input-res=1920x802 / interlace=0 / total-frames=189240 / level-idc=0 / high-tier=1 / uhd-bd=0 / ref=5 / no-allow-non-conformance / no-repeat-headers / annexb / no-aud / no-hrd / info / hash=0 / no-temporal-layers / no-open-gop / min-keyint=1 / keyint=360 / bframes=8 / b-adapt=2 / b-pyramid / bframe-bias=0 / rc-lookahead=60 / lookahead-slices=4 / NTMzNTQ=uuDQuD2mJt9fsCf / scenecut=40 / no-intra-refresh / ctu=32 / min-cu-size=8 / rect / no-amp / max-tu-size=16 / tu-inter-depth=2 / tu-intra-depth=2 / limit-tu=4 / rdoq-level=1 / dynamic-rd=0.00 / ssim-rd / signhide / no-tskip / nr-intra=0 / nr-inter=0 / no-constrained-intra / no-strong-intra-smoothing / max-merge=3 / limit-refs=2 / limit-modes / me=3 / subme=5 / merange=25 / temporal-mvp / weightp / weightb / no-analyze-src-pics / deblock=-1:-1 / no-sao / no-sao-non-deblock / rd=4 / no-early-skip / rskip / no-fast-intra / no-tskip-fast / no-cu-lossless / b-intra / no-splitrd-skip / rdpenalty=1 / psy-rd=0.00 / psy-rdoq=5.00 / no-rd-refine / analysis-reuse-mode=0 / no-lossless / cbqpoffs=-2 / crqpoffs=-2 / rc=crf / crf=18.0 / qcomp=0.70 / qpstep=4 / stats-write=0 / stats-read=0 / ipratio=1.40 / pbratio=1.30 / aq-mode=3 / aq-strength=0.80 / cutree / zone-count=0 / no-strict-cbr / qg-size=16 / no-rc-grain / qpmax=69 / qpmin=0 / no-const-vbv / sar=1 / overscan=0 / videoformat=5 / range=0 / colorprim=1 / transfer=2 / colormatrix=2 / chromaloc=0 / display-window=0 / max-cll=0,0 / min-luma=0 / max-luma=1023 / log2-max-poc-lsb=8 / vui-timing-info / vui-hrd-info / slices=1 / no-opt-qp-pps / no-opt-ref-list-length-pps / no-multi-pass-opt-rps / scenecut-bias=0.05 / no-opt-cu-delta-qp / no-aq-motion / no-hdr / no-hdr-opt / no-dhdr10-opt / analysis-reuse-level=5 / scale-factor=0 / refine-intra=0 / refine-inter=0 / refine-mv=0 / no-limit-sao / ctu-info=0 / no-lowpass-dct / refine-mv-type=0 / copy-pic=1
  33. Default                                  : Yes
  34. Forced                                   : No
  35. Color range                              : Limited
  36. Color primaries                          : BT.709
  37. Audio #1
  38. ID                                       : 2
  39. Format                                   : AC-3
  40. Format/Info                              : Audio Coding 3
  41. Commercial name                          : Dolby Digital
  42. Codec ID                                 : A_AC3
  43. Duration                                 : 2 h 11 min
  44. Bit rate mode                            : Constant
  45. Bit rate                                 : 640 kb/s
  46. Channel(s)                               : 6 channels
  47. Channel layout                           : L R C LFE Ls Rs
  48. Sampling rate                            : 48.0 kHz
  49. Frame rate                               : 31.250 FPS (1536 SPF)
  50. Compression mode                         : Lossy
  51. Stream size                              : 602 MiB (7%)
  52. Title                                    : 英语 AC3 640K
  53. Language                                 : English
  54. Service kind                             : Complete Main
  55. Default                                  : Yes
  56. Forced                                   : No
  57. Audio #2
  58. ID                                       : 3
  59. Format                                   : AC-3
  60. Format/Info                              : Audio Coding 3
  61. Commercial name                          : Dolby Digital
  62. Codec ID                                 : A_AC3
  63. Duration                                 : 2 h 11 min
  64. Bit rate mode                            : Constant
  65. Bit rate                                 : 640 kb/s
  66. Channel(s)                               : 6 channels
  67. Channel layout                           : L R C LFE Ls Rs
  68. Sampling rate                            : 48.0 kHz
  69. Frame rate                               : 31.250 FPS (1536 SPF)
  70. Compression mode                         : Lossy
  71. Stream size                              : 602 MiB (7%)
  72. Title                                    : 国配 AC3 640K
  73. Language                                 : Chinese
  74. Service kind                             : Complete Main
  75. Default                                  : No
  76. Forced                                   : No
  77. Text #1
  78. ID                                       : 4
  79. Format                                   : PGS
  80. Muxing mode                              : zlib
  81. Codec ID                                 : S_HDMV/PGS
  82. Codec ID/Info                            : Picture based subtitle format used on BDs/HD-DVDs
  83. Duration                                 : 2 h 4 min
  84. Bit rate                                 : 43.7 kb/s
  85. Count of elements                        : 4156
  86. Stream size                              : 38.7 MiB (0%)
  87. Title                                    : 英语
  88. Language                                 : English
  89. Default                                  : No
  90. Forced                                   : No
  91. Text #2
  92. ID                                       : 5
  93. Format                                   : PGS
  94. Muxing mode                              : zlib
  95. Codec ID                                 : S_HDMV/PGS
  96. Codec ID/Info                            : Picture based subtitle format used on BDs/HD-DVDs
  97. Duration                                 : 2 h 4 min
  98. Bit rate                                 : 132 kb/s
  99. Count of elements                        : 7952
  100. Stream size                              : 118 MiB (1%)
  101. Title                                    : 简英双语
  102. Language                                 : Chinese
  103. Default                                  : Yes
  104. Forced                                   : No
  105. Text #3
  106. ID                                       : 6
  107. Format                                   : PGS
  108. Muxing mode                              : zlib
  109. Codec ID                                 : S_HDMV/PGS
  110. Codec ID/Info                            : Picture based subtitle format used on BDs/HD-DVDs
  111. Duration                                 : 2 h 4 min
  112. Bit rate                                 : 139 kb/s
  113. Count of elements                        : 7952
  114. Stream size                              : 124 MiB (1%)
  115. Title                                    : 繁英双语
  116. Language                                 : Chinese
  117. Default                                  : No
  118. Forced                                   : No





此处一般会放置磁力链或种子下载链接,不过此链接需要注册会员才能看到,点击“立即注册”
磁力链下载【下载链接仅对注册会员开放,登陆后可见】
BT9527电影天堂 1、BT9527电影天堂提供的BT文件均来源于互联网抓取,只供网友学习交流、技术提升使用。
2、我们遵守BitTorrent点对点协议原则,任何版权问题请联系原资源发布商,我们不处理任何版权纠纷,谢谢!如有争议请联系邮箱:BT9527#hotmail.com(#换成@)
3、如果您发现某页面或地址有错误,请联系站长邮箱BT9527#hotmail.com(#换成@),我们会尽快处理。您的热心是对BT9527电影天堂最大的支持。
4、本站建议去正规影院观看电影以支持电影行业发展。
最新回复 (0)

你可以在 登录 or 注册 后,对此帖发表评论!

返回
发新帖