忌日快乐[简英字幕].Happy.Death.Day.2017.BluRay.1080p.x265.10bit-MiniHD 4.11GB

版主小s 3月前 134

✔资源类型:暂未分类   ✔电影年份:2017   ✔电影地区:欧美   ✔电影分类:悬疑

◎标  题 忌日快乐
◎译  名 死日快乐 / 吓到半死 / 死亡无限LOOP(港) / Again / Half to Death / Happy Birthdead
◎片  名 Happy Death Day
◎年  代 2017
◎产  地 美国
◎类  别 悬疑 / 惊悚 / 恐怖
◎语  言 英语
◎上映日期 2018-02-02(中国大陆) / 2017-10-13(美国)
◎IMDb评分 6.6/10 (130376人评价)
◎IMDb链接 https://www.imdb.com/title/tt5308322/
◎豆瓣评分 7.1/10 (230754人评价)
◎豆瓣链接 https://movie.douban.com/subject/27027913/
◎片  长 96分钟
◎导  演 克里斯托弗·兰登 Christopher Landon
◎编  剧 斯科特·洛布德尔 Scott Lobdell
◎演  员 杰西卡·罗德 Jessica Rothe
       伊瑟尔·布罗萨德 Israel Broussard
       露比·莫迪恩 Ruby Modine
       查尔斯·艾特肯 Charles Aitken
       劳拉·克利夫顿 Laura Clifton
       杰森·拜尔 Jason Bayle
       罗布·梅洛 Rob Mello
       瑞秋·马休斯 Rachel Matthews
       拉姆齐·安德森 Ramsey Anderson
       布雷迪·刘易斯 Brady Lewis
       飞·武 Phi Vu
       泰内娅·因崔亚戈 Tenea Intriago
       布莱恩·克恩 Blaine Kern III
       卡瑞尔拉·史密斯 Cariella Smith
       吉米·冈萨雷斯 Jimmy Gonzales
       比利·斯洛特 Billy Slaughter
       唐娜·杜普兰提尔 Donna Duplantier
       吉吉·埃内塔 GiGi Erneta
       林赛·G·史密斯 Lindsey G. Smith
       戴恩·罗兹 Dane Rhodes
       凯莱布·斯比尔亚兹 Caleb Spillyards
       蜜西·雅格 Missy Yager
       川川 Tran Tran
       吉奈尔·伊森 Jenelle Eason
       朱莉娅·霍特 Julia Holt
       迈克·霍华德 Mike Howard
       詹姆斯·米勒 James Miller
       杰弗里·帕特里克 Jeffrey Patrick
       维多利亚·范·弗利特 Victoria Van Fleet
       蕾·瓦蕾拉 Rae Varela

◎标  签 惊悚 / 死循环 / 悬疑 / 美国 / 恐怖 / 喜剧 / 黑色幽默 / 2017

◎简  介
    9月18日星期一,是放纵张扬的高校女孩泰莉·格尔布曼(杰西卡·罗德 Jessica Rothe 饰)的生日,同时也是她亡母的生日。前一晚她烂醉如泥,睡在了有一面之缘的男生卡特的房间。她醒来后回到宿舍,匆匆赶去上课。夜幕降临,姐妹们为她准备了惊喜的生日派对。谁知在赶赴派对的途中,泰 莉遭到蒙面男的杀害。吊诡的是,当她再度醒来时,发现自己又回到了9月18日的早上,十数个小时前经历的一切又不得不重新经历一遍,其中包括被杀的遭遇。就这样,抓狂的泰莉不断尝试改变命运,又一次次被神秘男人所杀害。                                    
                                  她仿佛落入了永世轮回的诅咒之中,无法超生……
  1. ##### MediaInfo ######
  2. General
  3. Unique ID                                : 191753277135215561241901985282070548791 (0x9042567C7ACE156D9055EC150B361137)
  4. Complete name                            : Happy.Death.Day.2017.BluRay.1080p.x265.10bit-MiniHD.mkv
  5. Format                                   : Matroska
  6. Format version                           : Version 4
  7. File size                                : 4.11 GiB
  8. Duration                                 : 1 h 36 min
  9. Overall bit rate                         : 6 121 kb/s
  10. Encoded date                             : UTC 2018-01-10 07:01:59
  11. Writing application                      : mkvmerge v8.5.2 ('Crosses') 32bit
  12. Writing library                          : libebml v1.3.3 + libmatroska v1.4.4
  13. Video
  14. ID                                       : 1
  15. Format                                   : HEVC
  16. Format/Info                              : High Efficiency Video Coding
  17. Format profile                           : Main 10@L4@Main
  18. Codec ID                                 : V_MPEGH/ISO/HEVC
  19. Duration                                 : 1 h 36 min
  20. Bit rate                                 : 5 478 kb/s
  21. Width                                    : 1 920 pixels
  22. Height                                   : 804 pixels
  23. Display aspect ratio                     : 2.40:1
  24. Frame rate mode                          : Constant
  25. Frame rate                               : 23.976 (24000/1001/53354) FPS
  26. Color space                              : YUV
  27. Chroma subsampling                       : 4:2:0
  28. Bit depth                                : 10 bits
  29. Bits/(Pixel*Frame)                       : 0.148
  30. Stream size                              : 3.68 GiB (90%)
  31. Writing library                          : x265 2.6+14-f09f3b4a2115:[Windows][GCC 7.2.0][64 bit] 10bit
  32. Encoding settings                        : cpuid=533541173503 / frame-threads=2 / numa-pools=4 / wpp / no-pmode / no-pme / no-psnr / no-ssim / log-level=2 / input-csp=1 / input-res=1920x804 / interlace=0 / total-frames=138375 / level-idc=0 / high-tier=1 / uhd-bd=0 / ref=5 / no-allow-non-conformance / no-repeat-headers / annexb / no-aud / no-hrd / info / hash=0 / no-temporal-layers / no-open-gop / min-keyint=1 / keyint=360 / gop-lookahead=0 / bframes=8 / b-adapt=2 / b-pyramid / bframe-bias=0 / rc-lookahead=60 / lookahead-slices=4 / NTMzNTQ=uuDQuD2mJt9fsCf / scenecut=40 / no-intra-refresh / ctu=32 / min-cu-size=8 / no-rect / no-amp / max-tu-size=16 / tu-inter-depth=2 / tu-intra-depth=2 / limit-tu=4 / rdoq-level=2 / dynamic-rd=0.00 / ssim-rd / signhide / no-tskip / nr-intra=0 / nr-inter=0 / no-constrained-intra / no-strong-intra-smoothing / max-merge=3 / limit-refs=2 / limit-modes / me=3 / subme=5 / merange=25 / temporal-mvp / weightp / weightb / no-analyze-src-pics / deblock=-1:-1 / no-sao / no-sao-non-deblock / rd=4 / no-early-skip / no-rskip / no-fast-intra / no-tskip-fast / no-cu-lossless / b-intra / no-splitrd-skip / rdpenalty=1 / psy-rd=0.00 / psy-rdoq=5.00 / no-rd-refine / analysis-reuse-mode=0 / no-lossless / cbqpoffs=-2 / crqpoffs=-2 / rc=crf / crf=17.0 / qcomp=0.70 / qpstep=4 / stats-write=0 / stats-read=0 / ipratio=1.40 / pbratio=1.30 / aq-mode=2 / aq-strength=0.90 / cutree / zone-count=0 / no-strict-cbr / qg-size=16 / no-rc-grain / qpmax=69 / qpmin=0 / no-const-vbv / sar=1 / overscan=0 / videoformat=5 / range=0 / colorprim=1 / transfer=2 / colormatrix=2 / chromaloc=0 / display-window=0 / max-cll=0,0 / min-luma=0 / max-luma=1023 / log2-max-poc-lsb=8 / vui-timing-info / vui-hrd-info / slices=1 / no-opt-qp-pps / no-opt-ref-list-length-pps / no-multi-pass-opt-rps / scenecut-bias=0.05 / no-opt-cu-delta-qp / no-aq-motion / no-hdr / no-hdr-opt / no-dhdr10-opt / analysis-reuse-level=5 / scale-factor=0 / refine-intra=0 / refine-inter=0 / refine-mv=0 / no-limit-sao / ctu-info=0 / no-lowpass-dct / refine-mv-type=0 / copy-pic=1
  33. Default                                  : Yes
  34. Forced                                   : No
  35. Color range                              : Limited
  36. Color primaries                          : BT.709
  37. Audio
  38. ID                                       : 2
  39. Format                                   : AC-3
  40. Format/Info                              : Audio Coding 3
  41. Commercial name                          : Dolby Digital
  42. Codec ID                                 : A_AC3
  43. Duration                                 : 1 h 36 min
  44. Bit rate mode                            : Constant
  45. Bit rate                                 : 640 kb/s
  46. Channel(s)                               : 6 channels
  47. Channel layout                           : L R C LFE Ls Rs
  48. Sampling rate                            : 48.0 kHz
  49. Frame rate                               : 31.250 FPS (1536 SPF)
  50. Compression mode                         : Lossy
  51. Stream size                              : 440 MiB (10%)
  52. Service kind                             : Complete Main
  53. Default                                  : Yes
  54. Forced                                   : No
  55. Text #1
  56. ID                                       : 3
  57. Format                                   : UTF-8
  58. Codec ID                                 : S_TEXT/UTF8
  59. Codec ID/Info                            : UTF-8 Plain Text
  60. Duration                                 : 1 h 29 min
  61. Bit rate                                 : 93 b/s
  62. Count of elements                        : 1210
  63. Stream size                              : 61.1 KiB (0%)
  64. Title                                    : CHS&ENG
  65. Language                                 : Chinese
  66. Default                                  : Yes
  67. Forced                                   : Yes
  68. Text #2
  69. ID                                       : 4
  70. Format                                   : UTF-8
  71. Codec ID                                 : S_TEXT/UTF8
  72. Codec ID/Info                            : UTF-8 Plain Text
  73. Duration                                 : 1 h 30 min
  74. Bit rate                                 : 55 b/s
  75. Count of elements                        : 1433
  76. Stream size                              : 37.0 KiB (0%)
  77. Title                                    : CHS&ENG
  78. Language                                 : Chinese
  79. Default                                  : No
  80. Forced                                   : No
  81. Text #3
  82. ID                                       : 5
  83. Format                                   : ASS
  84. Codec ID                                 : S_TEXT/ASS
  85. Codec ID/Info                            : Advanced Sub Station Alpha
  86. Duration                                 : 1 h 29 min
  87. Bit rate                                 : 169 b/s
  88. Count of elements                        : 1210
  89. Compression mode                         : Lossless
  90. Stream size                              : 111 KiB (0%)
  91. Title                                    : ENG
  92. Language                                 : English
  93. Default                                  : No
  94. Forced                                   : No
  95. Menu
  96. 00:00:00.000                             : en:00:00:00.000
  97. 00:04:54.461                             : en:00:04:54.461
  98. 00:10:26.000                             : en:00:10:26.000
  99. 00:14:10.683                             : en:00:14:10.683
  100. 00:21:46.722                             : en:00:21:46.722
  101. 00:25:08.799                             : en:00:25:08.799
  102. 00:29:37.859                             : en:00:29:37.859
  103. 00:33:09.321                             : en:00:33:09.321
  104. 00:37:50.143                             : en:00:37:50.143
  105. 00:41:46.170                             : en:00:41:46.170
  106. 00:44:54.191                             : en:00:44:54.191
  107. 00:53:07.935                             : en:00:53:07.935
  108. 00:57:28.362                             : en:00:57:28.362
  109. 01:00:18.448                             : en:01:00:18.448
  110. 01:07:41.557                             : en:01:07:41.557
  111. 01:12:16.290                             : en:01:12:16.290
  112. 01:16:35.090                             : en:01:16:35.090
  113. 01:21:17.081                             : en:01:21:17.081
  114. 01:27:13.645                             : en:01:27:13.645
  115. 01:30:24.169                             : en:01:30:24.169





此处一般会放置磁力链或种子下载链接,不过此链接需要注册会员才能看到,点击“立即注册”
磁力链下载【下载链接仅对注册会员开放,登陆后可见】
BT9527电影天堂 1、BT9527电影天堂提供的BT文件均来源于互联网抓取,只供网友学习交流、技术提升使用。
2、我们遵守BitTorrent点对点协议原则,任何版权问题请联系原资源发布商,我们不处理任何版权纠纷,谢谢!如有争议请联系邮箱:BT9527#hotmail.com(#换成@)
3、如果您发现某页面或地址有错误,请联系站长邮箱BT9527#hotmail.com(#换成@),我们会尽快处理。您的热心是对BT9527电影天堂最大的支持。
4、本站建议去正规影院观看电影以支持电影行业发展。
最新回复 (0)

你可以在 登录 or 注册 后,对此帖发表评论!

返回
发新帖