白日梦想家[简繁英字幕].The.Secret.Life.of.Walter.Mitty.2013.BluRay.1080p.x265.10bit-MiniHD 4.95GB

版主小s 3月前 166

✔资源类型:暂未分类   ✔电影年份:2013   ✔电影地区:欧美   ✔电影分类:剧情

◎标  题 白日梦想家
◎译  名 发梦王大历险(港) / 白日梦冒险王(台) / 奇幻冒险家 / 梦里乾坤 / 沃尔特·米蒂的秘密生活 / 白日密语
◎片  名 The Secret Life of Walter Mitty
◎年  代 2013
◎产  地 美国 / 英国
◎类  别 剧情 / 喜剧 / 冒险
◎语  言 英语 / 西班牙语 / 冰岛语
◎上映日期 2013-12-25(美国)
◎IMDb评分 7.3/10 (305399人评价)
◎IMDb链接 https://www.imdb.com/title/tt0359950/
◎豆瓣评分 8.5/10 (341115人评价)
◎豆瓣链接 https://movie.douban.com/subject/2133323/
◎片  长 114分钟
◎导  演 本·斯蒂勒 Ben Stiller
◎编  剧 斯蒂夫·康拉德 Steve Conrad
       詹姆斯·瑟伯 James Thurber
◎演  员 本·斯蒂勒 Ben Stiller
       克里斯汀·韦格 Kristen Wiig
       亚当·斯科特 Adam Scott
       西恩·潘 Sean Penn
       凯瑟琳·哈恩 Kathryn Hahn
       泰伦斯·伯尼·海恩斯 Terence Bernie Hines
       保罗·菲兹杰拉德 Paul Fitzgerald
       乔恩·戴利 Jon Daly
       乔伊·斯洛特尼克 Joey Slotnick
       格蕾丝·雷克斯 Grace Rex
       阿莱克斯·阿方格 Alex Anfanger
       阿曼达·诺顿 Amanda Naughton
       阿德里安·马丁斯 Adrian Martinez
       雪莉·麦克雷恩 Shirley MacLaine
       艾米·斯蒂勒 Amy Stiller
       斯图尔特·康菲尔德 Stuart Cornfeld
       奥拉维尔·达里·奥拉夫松 Ólafur Darri Ólafsson
       索哈德吕尔·西格罗森 Þórhallur Sigurðsson
       贡纳·黑尔加松 Gunnar Helgason
       卡伊·伦诺克斯 Kai Lennox
       柯南·奥布莱恩 Conan O'Brien
       安迪·里克特 Andy Richter
       安东尼·德西奥 Anthony Desio
       帕顿·奥斯瓦尔特 Patton Oswalt
       理查德·德多梅尼科 Richard DeDomenico
       马特·莱文 Matt Levin
       格雷格·西佩斯 Greg Cipes
       马米·科西科 Marmee Cosico
       马修·古利 Matthew Gooley
       罗丝玛丽·霍华德 Rosemary Howard
       伊兰·克里斯费尔德 Ilan Krigsfeld
       安娜·库奇马 Anna Kuchma
       西恩·奥斯汀 Sean Astin
       菲尼斯·埃弗里 Finise Avery
       艾伦·D·柏温 Alan D. Purwin
       加里·维尔姆斯 Gary Wilmes

◎标  签 美国 / 冒险 / 励志 / 人生 / 喜剧 / 旅行 / 奇幻 / 梦想

◎简  介
    沃特.密提(本·斯蒂勒 Ben Stiller 饰)是一名在《生活》杂志工作了16年的胶片洗印经理,他性格内向,甚至无法跟心仪的同事谢莉尔(克里斯汀·韦格 Kristen Wiig 饰)开口搭讪,面对生活他像个旁观者,时常“放空”做白日英雄梦。直到有一天公司被并购,杂志需要做最后一期的封面,而封面成功与否的关键是找到狂野摄影师尚恩(西恩·潘 Sean Penn)的一卷胶片,沃特终于开口搭讪谢莉尔,并在她和母亲(雪莉·麦克雷恩 Shirley MacLaine 饰)的鼓励下踏上真正的冒险之旅,冰原、大海、喜马拉雅山……沃特的白日梦远不及现实壮丽。
  1. ##### MediaInfo ######
  2. General
  3. Unique ID                                : 139651922755741118228755954352869458255 (0x690FFB6337160AF671FA9EEBFD01C14F)
  4. Complete name                            : The.Secret.Life.of.Walter.Mitty.2013.BluRay.1080p.x265.10bit-MiniHD.mkv
  5. Format                                   : Matroska
  6. Format version                           : Version 4
  7. File size                                : 4.95 GiB
  8. Duration                                 : 1 h 54 min
  9. Overall bit rate                         : 6 184 kb/s
  10. Encoded date                             : UTC 2018-02-16 09:46:00
  11. Writing application                      : mkvmerge v20.0.0 ('I Am The Sun') 64-bit
  12. Writing library                          : libebml v1.3.5 + libmatroska v1.4.8
  13. Video
  14. ID                                       : 1
  15. Format                                   : HEVC
  16. Format/Info                              : High Efficiency Video Coding
  17. Format profile                           : Main 10@L4@High
  18. Codec ID                                 : V_MPEGH/ISO/HEVC
  19. Duration                                 : 1 h 54 min
  20. Bit rate                                 : 5 501 kb/s
  21. Width                                    : 1 920 pixels
  22. Height                                   : 804 pixels
  23. Display aspect ratio                     : 2.40:1
  24. Frame rate mode                          : Constant
  25. Frame rate                               : 23.976 (24000/1001/53354) FPS
  26. Color space                              : YUV
  27. Chroma subsampling                       : 4:2:0
  28. Bit depth                                : 10 bits
  29. Bits/(Pixel*Frame)                       : 0.149
  30. Stream size                              : 4.40 GiB (89%)
  31. Title                                    : 视频
  32. Default                                  : Yes
  33. Forced                                   : No
  34. Color range                              : Limited
  35. Color primaries                          : BT.709
  36. Transfer characteristics                 : BT.709
  37. Matrix coefficients                      : BT.709
  38. Audio
  39. ID                                       : 2
  40. Format                                   : AC-3
  41. Format/Info                              : Audio Coding 3
  42. Commercial name                          : Dolby Digital
  43. Codec ID                                 : A_AC3
  44. Duration                                 : 1 h 54 min
  45. Bit rate mode                            : Constant
  46. Bit rate                                 : 640 kb/s
  47. Channel(s)                               : 6 channels
  48. Channel layout                           : L R C LFE Ls Rs
  49. Sampling rate                            : 48.0 kHz
  50. Frame rate                               : 31.250 FPS (1536 SPF)
  51. Compression mode                         : Lossy
  52. Stream size                              : 525 MiB (10%)
  53. Title                                    : 英语ac3-5.1@640kbps
  54. Language                                 : English
  55. Service kind                             : Complete Main
  56. Default                                  : Yes
  57. Forced                                   : No
  58. Text #1
  59. ID                                       : 3
  60. Format                                   : PGS
  61. Muxing mode                              : zlib
  62. Codec ID                                 : S_HDMV/PGS
  63. Codec ID/Info                            : Picture based subtitle format used on BDs/HD-DVDs
  64. Duration                                 : 1 h 53 min
  65. Bit rate                                 : 25.8 kb/s
  66. Count of elements                        : 3307
  67. Stream size                              : 21.0 MiB (0%)
  68. Title                                    : 简中
  69. Language                                 : Chinese
  70. Default                                  : Yes
  71. Forced                                   : No
  72. Text #2
  73. ID                                       : 4
  74. Format                                   : PGS
  75. Muxing mode                              : zlib
  76. Codec ID                                 : S_HDMV/PGS
  77. Codec ID/Info                            : Picture based subtitle format used on BDs/HD-DVDs
  78. Duration                                 : 1 h 53 min
  79. Bit rate                                 : 26.8 kb/s
  80. Count of elements                        : 3307
  81. Stream size                              : 21.8 MiB (0%)
  82. Title                                    : 繁中
  83. Language                                 : Chinese
  84. Default                                  : No
  85. Forced                                   : No
  86. Text #3
  87. ID                                       : 5
  88. Format                                   : PGS
  89. Muxing mode                              : zlib
  90. Codec ID                                 : S_HDMV/PGS
  91. Codec ID/Info                            : Picture based subtitle format used on BDs/HD-DVDs
  92. Duration                                 : 1 h 41 min
  93. Bit rate                                 : 33.3 kb/s
  94. Count of elements                        : 2966
  95. Stream size                              : 24.2 MiB (0%)
  96. Title                                    : 英语
  97. Language                                 : English
  98. Default                                  : No
  99. Forced                                   : No
  100. Menu
  101. 00:00:00.000                             : en:Chapter 01
  102. 00:02:51.004                             : en:Chapter 02
  103. 00:05:39.756                             : en:Chapter 03
  104. 00:08:33.972                             : en:Chapter 04
  105. 00:10:54.571                             : en:Chapter 05
  106. 00:13:52.248                             : en:Chapter 06
  107. 00:17:48.234                             : en:Chapter 07
  108. 00:20:39.655                             : en:Chapter 08
  109. 00:23:33.245                             : en:Chapter 09
  110. 00:26:31.381                             : en:Chapter 10
  111. 00:30:08.265                             : en:Chapter 11
  112. 00:32:19.521                             : en:Chapter 12
  113. 00:35:01.057                             : en:Chapter 13
  114. 00:38:18.838                             : en:Chapter 14
  115. 00:40:31.846                             : en:Chapter 15
  116. 00:44:51.480                             : en:Chapter 16
  117. 00:48:13.891                             : en:Chapter 17
  118. 00:51:29.670                             : en:Chapter 18
  119. 00:54:36.273                             : en:Chapter 19
  120. 00:57:28.403                             : en:Chapter 20
  121. 01:00:02.140                             : en:Chapter 21
  122. 01:03:10.620                             : en:Chapter 22
  123. 01:05:28.383                             : en:Chapter 23
  124. 01:09:27.288                             : en:Chapter 24
  125. 01:11:23.029                             : en:Chapter 25
  126. 01:14:06.651                             : en:Chapter 26
  127. 01:18:31.749                             : en:Chapter 27
  128. 01:22:50.883                             : en:Chapter 28
  129. 01:28:52.536                             : en:Chapter 29
  130. 01:30:24.461                             : en:Chapter 30
  131. 01:33:54.671                             : en:Chapter 31
  132. 01:35:39.484                             : en:Chapter 32
  133. 01:38:24.357                             : en:Chapter 33
  134. 01:39:48.274                             : en:Chapter 34
  135. 01:43:01.675                             : en:Chapter 35
  136. 01:44:28.262                             : en:Chapter 36
  137. 01:54:34.659                             : en:Chapter 37





此处一般会放置磁力链或种子下载链接,不过此链接需要注册会员才能看到,点击“立即注册”
磁力链下载【下载链接仅对注册会员开放,登陆后可见】
BT9527电影天堂 1、BT9527电影天堂提供的BT文件均来源于互联网抓取,只供网友学习交流、技术提升使用。
2、我们遵守BitTorrent点对点协议原则,任何版权问题请联系原资源发布商,我们不处理任何版权纠纷,谢谢!如有争议请联系邮箱:BT9527#hotmail.com(#换成@)
3、如果您发现某页面或地址有错误,请联系站长邮箱BT9527#hotmail.com(#换成@),我们会尽快处理。您的热心是对BT9527电影天堂最大的支持。
4、本站建议去正规影院观看电影以支持电影行业发展。
最新回复 (0)

你可以在 登录 or 注册 后,对此帖发表评论!

返回
发新帖