狙击精英:巅峰对决[简英字幕].Sniper.Ultimate.Kill.2017.BluRay.1080p.x265.10bit-MiniHD 4.18GB

版主小s 3月前 172

✔资源类型:暂未分类   ✔电影年份:2017   ✔电影地区:欧美   ✔电影分类:剧情

◎标  题 狙击精英:巅峰对决
◎译  名 狙击精英:国土安全 / 双狙人7:国土安全 / 狙击手7:国土安全 / 狙击精英:终结之战 / 双狙人:终结之战 / 狙击手:终结之战 / Sniper 7: Homeland Security
◎片  名 Sniper: Ultimate Kill
◎年  代 2017
◎产  地 美国
◎类  别 剧情 / 动作 / 惊悚
◎语  言 英语
◎上映日期 2017-10-03(美国)
◎IMDb评分 5.6/10 (4223人评价)
◎IMDb链接 https://www.imdb.com/title/tt6349302/
◎豆瓣评分 5.6/10 (2804人评价)
◎豆瓣链接 https://movie.douban.com/subject/26957177/
◎片  长 90分钟
◎导  演 克劳迪奥·法 Claudio Fäh
◎编  剧 克里斯·浩迪 Chris Hauty
       迈克尔·弗罗斯特·贝克纳 Michael Frost Beckner
       克拉什·莱兰 Crash Leyland
◎演  员 查德·科林斯 Chad Collins
       比利·赞恩 Billy Zane
       汤姆·贝伦杰 Tom Berenger
       丹妮·加西亚 Danay Garcia
       乔·兰多 Joe Lando
       费利佩·卡莱罗 Felipe Calero
       胡安·塞巴斯蒂安·卡莱罗 Juan Sebastián Calero
       胡安·巴勃罗·甘博亚 Juan Pablo Gamboa
       卢乔·韦拉斯科 Lucho Velasco
       黛安娜·霍约斯 Diana Hoyos

◎标  签 狙击 / 动作 / 美国 / 军事 / 犯罪 / 2017 / 战争 / 惊悚

◎简  介
    哥伦比亚的毒枭接管了一条通往美国的走私管道,一名海军陆战队狙击手与一位联邦探员则要联手捉拿他和他旗下的贩毒集团。
  1. ##### MediaInfo ######
  2. General
  3. Unique ID                                : 142472966075629057620321613162141132429 (0x6B2F4B8FCE9D9348B577B2919153268D)
  4. Complete name                            : Sniper.Ultimate.Kill.2017.BluRay.1080p.x265.10bit-MiniHD.mkv
  5. Format                                   : Matroska
  6. Format version                           : Version 4
  7. File size                                : 4.18 GiB
  8. Duration                                 : 1 h 33 min
  9. Overall bit rate                         : 6 421 kb/s
  10. Encoded date                             : UTC 2018-03-30 08:13:09
  11. Writing application                      : mkvmerge v21.0.0 ('Tardigrades Will Inherit The Earth') 64-bit
  12. Writing library                          : libebml v1.3.5 + libmatroska v1.4.8
  13. Video
  14. ID                                       : 1
  15. Format                                   : HEVC
  16. Format/Info                              : High Efficiency Video Coding
  17. Format profile                           : Main 10@L4@Main
  18. Codec ID                                 : V_MPEGH/ISO/HEVC
  19. Duration                                 : 1 h 33 min
  20. Bit rate                                 : 5 746 kb/s
  21. Width                                    : 1 920 pixels
  22. Height                                   : 800 pixels
  23. Display aspect ratio                     : 2.40:1
  24. Frame rate mode                          : Constant
  25. Frame rate                               : 23.976 (24000/1001/53354) FPS
  26. Color space                              : YUV
  27. Chroma subsampling                       : 4:2:0
  28. Bit depth                                : 10 bits
  29. Bits/(Pixel*Frame)                       : 0.156
  30. Stream size                              : 3.74 GiB (89%)
  31. Writing library                          : x265 2.7+1-2aa737a99f51:[Windows][GCC 7.3.0][64 bit] 10bit
  32. Encoding settings                        : cpuid=533541173503 / frame-threads=3 / numa-pools=8 / wpp / no-pmode / no-pme / no-psnr / no-ssim / log-level=2 / input-csp=1 / input-res=1920x800 / interlace=0 / total-frames=134230 / level-idc=0 / high-tier=1 / uhd-bd=0 / ref=5 / no-allow-non-conformance / no-repeat-headers / annexb / no-aud / no-hrd / info / hash=0 / no-temporal-layers / no-open-gop / min-keyint=1 / keyint=360 / gop-lookahead=0 / bframes=8 / b-adapt=2 / b-pyramid / bframe-bias=0 / rc-lookahead=60 / lookahead-slices=4 / NTMzNTQ=uuDQuD2mJt9fsCf / scenecut=40 / radl=0 / no-intra-refresh / ctu=32 / min-cu-size=8 / rect / no-amp / max-tu-size=16 / tu-inter-depth=2 / tu-intra-depth=2 / limit-tu=4 / rdoq-level=1 / dynamic-rd=0.00 / ssim-rd / signhide / no-tskip / nr-intra=0 / nr-inter=0 / no-constrained-intra / no-strong-intra-smoothing / max-merge=3 / limit-refs=2 / limit-modes / me=3 / subme=5 / merange=25 / temporal-mvp / weightp / weightb / no-analyze-src-pics / deblock=-1:-1 / no-sao / no-sao-non-deblock / rd=4 / no-early-skip / rskip / no-fast-intra / no-tskip-fast / no-cu-lossless / b-intra / no-splitrd-skip / rdpenalty=1 / psy-rd=0.00 / psy-rdoq=5.00 / no-rd-refine / no-lossless / cbqpoffs=-2 / crqpoffs=-2 / rc=crf / crf=19.0 / qcomp=0.70 / qpstep=4 / stats-write=0 / stats-read=0 / ipratio=1.40 / pbratio=1.30 / aq-mode=2 / aq-strength=0.80 / cutree / zone-count=0 / no-strict-cbr / qg-size=16 / no-rc-grain / qpmax=69 / qpmin=0 / no-const-vbv / sar=1 / overscan=0 / videoformat=5 / range=0 / colorprim=1 / transfer=2 / colormatrix=2 / chromaloc=0 / display-window=0 / max-cll=0,0 / min-luma=0 / max-luma=1023 / log2-max-poc-lsb=8 / vui-timing-info / vui-hrd-info / slices=1 / no-opt-qp-pps / no-opt-ref-list-length-pps / no-multi-pass-opt-rps / scenecut-bias=0.05 / no-opt-cu-delta-qp / no-aq-motion / no-hdr / no-hdr-opt / no-dhdr10-opt / analysis-reuse-level=5 / scale-factor=0 / refine-intra=0 / refine-inter=0 / refine-mv=0 / no-limit-sao / ctu-info=0 / no-lowpass-dct / refine-mv-type=0 / copy-pic=1
  33. Default                                  : Yes
  34. Forced                                   : No
  35. Color range                              : Limited
  36. Color primaries                          : BT.709
  37. Audio
  38. ID                                       : 2
  39. Format                                   : AC-3
  40. Format/Info                              : Audio Coding 3
  41. Commercial name                          : Dolby Digital
  42. Codec ID                                 : A_AC3
  43. Duration                                 : 1 h 33 min
  44. Bit rate mode                            : Constant
  45. Bit rate                                 : 640 kb/s
  46. Channel(s)                               : 6 channels
  47. Channel layout                           : L R C LFE Ls Rs
  48. Sampling rate                            : 48.0 kHz
  49. Frame rate                               : 31.250 FPS (1536 SPF)
  50. Compression mode                         : Lossy
  51. Stream size                              : 427 MiB (10%)
  52. Language                                 : English
  53. Service kind                             : Complete Main
  54. Default                                  : Yes
  55. Forced                                   : No
  56. Text #1
  57. ID                                       : 3
  58. Format                                   : PGS
  59. Muxing mode                              : zlib
  60. Codec ID                                 : S_HDMV/PGS
  61. Codec ID/Info                            : Picture based subtitle format used on BDs/HD-DVDs
  62. Duration                                 : 1 h 25 min
  63. Bit rate                                 : 30.4 kb/s
  64. Count of elements                        : 1920
  65. Stream size                              : 18.7 MiB (0%)
  66. Title                                    : 简英双语
  67. Language                                 : Chinese
  68. Default                                  : Yes
  69. Forced                                   : No
  70. Text #2
  71. ID                                       : 4
  72. Format                                   : PGS
  73. Muxing mode                              : zlib
  74. Codec ID                                 : S_HDMV/PGS
  75. Codec ID/Info                            : Picture based subtitle format used on BDs/HD-DVDs
  76. Duration                                 : 1 h 25 min
  77. Bit rate                                 : 17.5 kb/s
  78. Count of elements                        : 1920
  79. Stream size                              : 10.7 MiB (0%)
  80. Title                                    : 简体字幕
  81. Language                                 : Chinese
  82. Default                                  : No
  83. Forced                                   : No
  84. Text #3
  85. ID                                       : 5
  86. Format                                   : PGS
  87. Muxing mode                              : zlib
  88. Codec ID                                 : S_HDMV/PGS
  89. Codec ID/Info                            : Picture based subtitle format used on BDs/HD-DVDs
  90. Duration                                 : 1 h 24 min
  91. Bit rate                                 : 17.0 kb/s
  92. Count of elements                        : 1877
  93. Stream size                              : 10.3 MiB (0%)
  94. Title                                    : 英语字幕
  95. Language                                 : English
  96. Default                                  : No
  97. Forced                                   : No





此处一般会放置磁力链或种子下载链接,不过此链接需要注册会员才能看到,点击“立即注册”
磁力链下载【下载链接仅对注册会员开放,登陆后可见】
BT9527电影天堂 1、BT9527电影天堂提供的BT文件均来源于互联网抓取,只供网友学习交流、技术提升使用。
2、我们遵守BitTorrent点对点协议原则,任何版权问题请联系原资源发布商,我们不处理任何版权纠纷,谢谢!如有争议请联系邮箱:BT9527#hotmail.com(#换成@)
3、如果您发现某页面或地址有错误,请联系站长邮箱BT9527#hotmail.com(#换成@),我们会尽快处理。您的热心是对BT9527电影天堂最大的支持。
4、本站建议去正规影院观看电影以支持电影行业发展。
最新回复 (0)

你可以在 登录 or 注册 后,对此帖发表评论!

返回