爱恋[简繁英字幕].Loving.2016.BluRay.1080p.x265.10bit-MiniHD 4.81GB

版主小s 4天前 51

✔资源类型:暂未分类   ✔电影年份:2016   ✔电影地区:欧美   ✔电影分类:剧情

◎标  题 爱恋
◎译  名 相爱很难(港) / 爱侣(台) / 以爱之姓 / 禁爱
◎片  名 Loving
◎年  代 2016
◎产  地 英国 / 美国
◎类  别 剧情 / 爱情 / 传记
◎语  言 英语
◎上映日期 2016-05-16(戛纳电影节) / 2016-11-04(美国)
◎IMDb评分 7/10 (33510人评价)
◎IMDb链接 https://www.imdb.com/title/tt4669986/
◎豆瓣评分 7.2/10 (4747人评价)
◎豆瓣链接 https://movie.douban.com/subject/26617076/
◎片  长 123分钟
◎导  演 杰夫·尼克尔斯 Jeff Nichols
◎编  剧 杰夫·尼克尔斯 Jeff Nichols
◎演  员 乔尔·埃哲顿 Joel Edgerton
       鲁丝·内伽 Ruth Negga
       迈克尔·珊农 Michael Shannon
       马尔顿·索克斯 Marton Csokas
       尼克·克罗尔 Nick Kroll
       比尔·坎普 Bill Camp
       大卫·詹森 David Jensen
       克里斯·格林 Chris Greene
       迈克尔·阿伯特 Michael Abbott Jr.
       克里斯托弗·曼恩 Christopher Mann
       柯莉·坎帕尼 Coley Campany

◎标  签 美国 / 爱情 / 传记 / 2016 / 剧情 / 种族 / 历史 / 人权

◎简  介
    故事发生在1958年的美国,年轻的女子米尔德(鲁丝·内伽 Ruth Negga 饰)爱上了名为理查德(乔尔·埃哲顿 Joel Edgerton 饰)的男人,两人很快就走到了一起。然而,这段恋情却在社会上掀起了轩然大波,原因只有一个,那就是米尔德是一名黑人女子,而理查德是一名白人男子。                                    
                                  这段黑白恋令他们所居住的弗吉尼亚州震怒了,州长竟然就此事将两人告上了法庭,审判结果非常的荒谬,夫妻两人双双被判入狱,而两人获得赦免的条件是,理查德必须永远的离开弗吉尼亚州,再不回来。米尔德和理查德并没有顺从于这不公平的命运,而是为了捍卫他们的爱情和人权,进行了上诉。
  1. ##### MediaInfo ######
  2. General
  3. Unique ID                                : 147413332884660208982864211338561124355 (0x6EE6C67389609C1C6CFC399C6564F803)
  4. Complete name                            : Loving.2016.BluRay.1080p.x265.10bit-MiniHD.mkv
  5. Format                                   : Matroska
  6. Format version                           : Version 4
  7. File size                                : 4.81 GiB
  8. Duration                                 : 2 h 3 min
  9. Overall bit rate                         : 5 577 kb/s
  10. Encoded date                             : UTC 2018-02-20 10:12:22
  11. Writing application                      : mkvmerge v20.0.0 ('I Am The Sun') 64-bit
  12. Writing library                          : libebml v1.3.5 + libmatroska v1.4.8
  13. Video
  14. ID                                       : 1
  15. Format                                   : HEVC
  16. Format/Info                              : High Efficiency Video Coding
  17. Format profile                           : Main 10@L4@High
  18. Codec ID                                 : V_MPEGH/ISO/HEVC
  19. Duration                                 : 2 h 3 min
  20. Bit rate                                 : 4 894 kb/s
  21. Width                                    : 1 920 pixels
  22. Height                                   : 804 pixels
  23. Display aspect ratio                     : 2.40:1
  24. Frame rate mode                          : Constant
  25. Frame rate                               : 23.976 (24000/1001/53354) FPS
  26. Color space                              : YUV
  27. Chroma subsampling                       : 4:2:0
  28. Bit depth                                : 10 bits
  29. Bits/(Pixel*Frame)                       : 0.132
  30. Stream size                              : 4.22 GiB (88%)
  31. Title                                    : 视频
  32. Default                                  : Yes
  33. Forced                                   : No
  34. Color range                              : Limited
  35. Color primaries                          : BT.709
  36. Transfer characteristics                 : BT.709
  37. Matrix coefficients                      : BT.709
  38. Audio
  39. ID                                       : 2
  40. Format                                   : AC-3
  41. Format/Info                              : Audio Coding 3
  42. Commercial name                          : Dolby Digital
  43. Codec ID                                 : A_AC3
  44. Duration                                 : 2 h 3 min
  45. Bit rate mode                            : Constant
  46. Bit rate                                 : 640 kb/s
  47. Channel(s)                               : 6 channels
  48. Channel layout                           : L R C LFE Ls Rs
  49. Sampling rate                            : 48.0 kHz
  50. Frame rate                               : 31.250 FPS (1536 SPF)
  51. Compression mode                         : Lossy
  52. Stream size                              : 565 MiB (11%)
  53. Title                                    : 英语AC3-5.1@640KBPS
  54. Language                                 : English
  55. Service kind                             : Complete Main
  56. Default                                  : Yes
  57. Forced                                   : No
  58. Text #1
  59. ID                                       : 3
  60. Format                                   : PGS
  61. Muxing mode                              : zlib
  62. Codec ID                                 : S_HDMV/PGS
  63. Codec ID/Info                            : Picture based subtitle format used on BDs/HD-DVDs
  64. Duration                                 : 2 h 1 min
  65. Bit rate                                 : 15.7 kb/s
  66. Count of elements                        : 1966
  67. Stream size                              : 13.6 MiB (0%)
  68. Title                                    : 原盘繁中
  69. Language                                 : Chinese
  70. Default                                  : Yes
  71. Forced                                   : No
  72. Text #2
  73. ID                                       : 4
  74. Format                                   : PGS
  75. Muxing mode                              : zlib
  76. Codec ID                                 : S_HDMV/PGS
  77. Codec ID/Info                            : Picture based subtitle format used on BDs/HD-DVDs
  78. Duration                                 : 1 h 54 min
  79. Bit rate                                 : 13.1 kb/s
  80. Count of elements                        : 1288
  81. Stream size                              : 10.7 MiB (0%)
  82. Title                                    : 简中黑边内
  83. Language                                 : Chinese
  84. Default                                  : No
  85. Forced                                   : No
  86. Text #3
  87. ID                                       : 5
  88. Format                                   : PGS
  89. Muxing mode                              : zlib
  90. Codec ID                                 : S_HDMV/PGS
  91. Codec ID/Info                            : Picture based subtitle format used on BDs/HD-DVDs
  92. Duration                                 : 1 h 54 min
  93. Bit rate                                 : 13.1 kb/s
  94. Count of elements                        : 1288
  95. Stream size                              : 10.7 MiB (0%)
  96. Title                                    : 简中黑边外
  97. Language                                 : Chinese
  98. Default                                  : No
  99. Forced                                   : No
  100. Text #4
  101. ID                                       : 6
  102. Format                                   : PGS
  103. Muxing mode                              : zlib
  104. Codec ID                                 : S_HDMV/PGS
  105. Codec ID/Info                            : Picture based subtitle format used on BDs/HD-DVDs
  106. Duration                                 : 1 h 54 min
  107. Bit rate                                 : 13.2 kb/s
  108. Count of elements                        : 1288
  109. Stream size                              : 10.8 MiB (0%)
  110. Title                                    : 繁中黑边内
  111. Language                                 : Chinese
  112. Default                                  : No
  113. Forced                                   : No
  114. Text #5
  115. ID                                       : 7
  116. Format                                   : PGS
  117. Muxing mode                              : zlib
  118. Codec ID                                 : S_HDMV/PGS
  119. Codec ID/Info                            : Picture based subtitle format used on BDs/HD-DVDs
  120. Duration                                 : 1 h 54 min
  121. Bit rate                                 : 13.2 kb/s
  122. Count of elements                        : 1288
  123. Stream size                              : 10.8 MiB (0%)
  124. Title                                    : 繁中黑边外
  125. Language                                 : Chinese
  126. Default                                  : No
  127. Forced                                   : No
  128. Text #6
  129. ID                                       : 8
  130. Format                                   : PGS
  131. Muxing mode                              : zlib
  132. Codec ID                                 : S_HDMV/PGS
  133. Codec ID/Info                            : Picture based subtitle format used on BDs/HD-DVDs
  134. Duration                                 : 1 h 53 min
  135. Bit rate                                 : 26.0 kb/s
  136. Count of elements                        : 2274
  137. Stream size                              : 21.0 MiB (0%)
  138. Title                                    : 英语
  139. Language                                 : English
  140. Default                                  : No
  141. Forced                                   : No
  142. Menu
  143. 00:00:00.000                             : en:Chapter 01
  144. 00:08:25.797                             : en:Chapter 02
  145. 00:13:50.997                             : en:Chapter 03
  146. 00:18:55.343                             : en:Chapter 04
  147. 00:23:24.987                             : en:Chapter 05
  148. 00:29:08.622                             : en:Chapter 06
  149. 00:33:08.111                             : en:Chapter 07
  150. 00:45:15.338                             : en:Chapter 08
  151. 00:51:09.316                             : en:Chapter 09
  152. 00:59:59.346                             : en:Chapter 10
  153. 01:05:42.105                             : en:Chapter 11
  154. 01:10:59.046                             : en:Chapter 12
  155. 01:15:21.183                             : en:Chapter 13
  156. 01:20:13.642                             : en:Chapter 14
  157. 01:29:39.791                             : en:Chapter 15
  158. 01:35:39.901                             : en:Chapter 16
  159. 01:43:31.622                             : en:Chapter 17
  160. 01:48:09.817                             : en:Chapter 18
  161. 01:53:26.591                             : en:Chapter 19
  162. 01:56:30.400                             : en:Chapter 20
  163. 02:03:24.355                             : en:Chapter 21





此处一般会放置磁力链或种子下载链接,不过此链接需要注册会员才能看到,点击“立即注册”
磁力链下载【下载链接仅对注册会员开放,登陆后可见】
BT9527电影天堂 1、BT9527电影天堂提供的BT文件均来源于互联网抓取,只供网友学习交流、技术提升使用。
2、我们遵守BitTorrent点对点协议原则,任何版权问题请联系原资源发布商,我们不处理任何版权纠纷,谢谢!如有争议请联系邮箱:BT9527#hotmail.com(#换成@)
3、如果您发现某页面或地址有错误,请联系站长邮箱BT9527#hotmail.com(#换成@),我们会尽快处理。您的热心是对BT9527电影天堂最大的支持。
4、本站建议去正规影院观看电影以支持电影行业发展。
最新回复 (0)

你可以在 登录 or 注册 后,对此帖发表评论!

返回