爱你,西蒙[简繁英字幕].Love.Simon.2018.BluRay.1080p.x265.10bit-MiniHD 4.07GB

版主小s 3月前 112

✔资源类型:暂未分类   ✔电影年份:2018   ✔电影地区:欧美   ✔电影分类:喜剧

◎标  题 爱你,西蒙
◎译  名 亲爱的初恋(台) / 抱抱我的初恋(港) / 西蒙和他的出柜日记 / 爱你的西蒙 / 爱,赛蒙
◎片  名 Love, Simon
◎年  代 2018
◎产  地 美国
◎类  别 喜剧 / 爱情 / 同性
◎语  言 英语
◎上映日期 2018-03-16(美国)
◎IMDb评分 7.5/10 (111507人评价)
◎IMDb链接 https://www.imdb.com/title/tt5164432/
◎豆瓣评分 8.3/10 (214317人评价)
◎豆瓣链接 https://movie.douban.com/subject/26654498/
◎片  长 110分钟
◎导  演 格里格·伯兰蒂 Greg Berlanti
◎编  剧 伊丽莎白·伯格 Elizabeth Berger
       艾萨克·阿普塔克 Isaac Aptaker
       贝奇·艾伯特利 Becky Albertalli
◎演  员 尼克·罗宾森 Nick Robinson
       詹妮弗·加纳 Jennifer Garner
       乔什·杜哈明 Josh Duhamel
       小豪尔赫·兰登伯格 Jorge Lendeborg Jr.
       凯瑟琳·兰福德 Katherine Langford
       亚历山德拉·希普 Alexandra Shipp
       洛根·米勒 Logan Miller
       凯南·朗斯代尔 Keiynan Lonsdale
       特丽莎·贝特曼 Talitha Bateman
       托尼·海尔 Tony Hale
       娜塔莎·罗斯韦尔 Natasha Rothwell
       迈尔斯·赫尔泽 Miles Heizer
       乔伊·保罗瑞 Joey Pollari
       克拉克·穆尔 Clark Moore
       德鲁·斯塔基 Drew Starkey
       麦肯兹·林茨 Mackenzie Lintz
       卡萨迪·麦克林西 Cassady McClincy
       艾莉克斯·斯甘巴蒂 Alex Sgambati
       贾米拉·汤普森 Jamila Thompson
       艾米丽·乔丹 Emily Jordan
       帕特里克·多诺霍 Patrick Donohue
       特雷勒·希尔 Terayle Hill
       泰勒·切斯 Tyler Chase
       哈龙·汗 Haroon Khan
       约书亚·米克尔 Joshua Mikel
       尼古拉斯·斯塔格尔 Nicholas Stargel
       南茜·德·梅奥 Nancy De Mayo
       克里斯蒂安·奥乔·梅菲尔德 Christian Ojore Mayfield
       钱特尔·D·克里斯托弗 Chantell D. Christopher
       曼迪·法森 Mandy Fason
       菲利普·科文 Philip Covin
       罗比·罗杰斯 Robbie Rogers
       科尔顿·海恩斯 Colton Haynes
       罗伯·西蒙森 Rob Simonsen
       黛西·罗斯·布莱内斯 Darcy Rose Byrnes
        
       胡安·贾斯帕 Juan Gaspard
       罗伯·西蒙森 Rob Simonsen
       约翰·古莱斯利安 John Guleserian
       埃里克·达曼 Eric Daman
       杰弗里·保罗·瓦伦蒂 JP Valenti
       乔伊·保罗瑞 Joey Pollari

◎简  介
  每个人都值得拥有一个伟大的爱情故事。但是对一个17岁的高中生「赛门」来说这一切却是件超複杂的事:第一、没有人知道他是同性恋;第二、他也搞不清楚自己爱上跟他一样有同样困扰的不具名网友到底是何方神圣???为了解决这两个大麻烦,赛门展开一段爆笑又吓人的解答过程,但他没料到的是,最后得到的答案却从此改变了自己的人生。
  1. ##### MediaInfo ######
  2. General
  3. Unique ID                                : 181170922908796743185488982886995375353 (0x884C4023EDCFD82EAF0F6BFB663EB4F9)
  4. Complete name                            : Love.Simon.2018.BluRay.1080p.x265.10bit-MiniHD.mkv
  5. Format                                   : Matroska
  6. Format version                           : Version 4
  7. File size                                : 4.07 GiB
  8. Duration                                 : 1 h 49 min
  9. Overall bit rate                         : 5 305 kb/s
  10. Encoded date                             : UTC 2018-06-09 01:54:29
  11. Writing application                      : mkvmerge v18.0.0 ('Apricity') 64-bit
  12. Writing library                          : libebml v1.3.5 + libmatroska v1.4.8
  13. Video
  14. ID                                       : 1
  15. Format                                   : HEVC
  16. Format/Info                              : High Efficiency Video Coding
  17. Format profile                           : Main 10@L4@Main
  18. Codec ID                                 : V_MPEGH/ISO/HEVC
  19. Duration                                 : 1 h 49 min
  20. Bit rate                                 : 4 461 kb/s
  21. Width                                    : 1 920 pixels
  22. Height                                   : 804 pixels
  23. Display aspect ratio                     : 2.40:1
  24. Frame rate mode                          : Constant
  25. Frame rate                               : 23.976 (24000/1001/53354) FPS
  26. Color space                              : YUV
  27. Chroma subsampling                       : 4:2:0
  28. Bit depth                                : 10 bits
  29. Bits/(Pixel*Frame)                       : 0.121
  30. Stream size                              : 3.42 GiB (84%)
  31. Writing library                          : x265 2.8+1-478bfe2b7673:[Windows][GCC 7.3.0][64 bit] 10bit
  32. Encoding settings                        : cpuid=533541111039 / frame-threads=3 / numa-pools=8 / wpp / no-pmode / no-pme / no-psnr / no-ssim / log-level=2 / csv / csv-log-level=0 / input-csp=1 / input-res=1920x804 / interlace=0 / total-frames=157825 / level-idc=0 / high-tier=1 / uhd-bd=0 / ref=5 / no-allow-non-conformance / no-repeat-headers / annexb / no-aud / no-hrd / info / hash=0 / no-temporal-layers / no-open-gop / min-keyint=1 / keyint=360 / gop-lookahead=0 / bframes=8 / b-adapt=2 / b-pyramid / bframe-bias=0 / rc-lookahead=40 / lookahead-slices=4 / NTMzNTQ=uuDQuD2mJt9fsCf / scenecut=40 / radl=0 / no-intra-refresh / ctu=32 / min-cu-size=8 / rect / no-amp / max-tu-size=16 / tu-inter-depth=2 / tu-intra-depth=2 / limit-tu=4 / rdoq-level=1 / dynamic-rd=0.00 / ssim-rd / signhide / no-tskip / nr-intra=0 / nr-inter=0 / no-constrained-intra / no-strong-intra-smoothing / max-merge=3 / limit-refs=2 / limit-modes / me=3 / subme=5 / merange=25 / temporal-mvp / weightp / weightb / no-analyze-src-pics / deblock=-1:-1 / no-sao / no-sao-non-deblock / rd=4 / no-early-skip / rskip / no-fast-intra / no-tskip-fast / no-cu-lossless / b-intra / no-splitrd-skip / rdpenalty=1 / psy-rd=0.00 / psy-rdoq=5.00 / no-rd-refine / no-lossless / cbqpoffs=-2 / crqpoffs=-2 / rc=crf / crf=18.0 / qcomp=0.65 / qpstep=4 / stats-write=0 / stats-read=0 / ipratio=1.40 / pbratio=1.30 / aq-mode=2 / aq-strength=0.80 / cutree / zone-count=0 / no-strict-cbr / qg-size=16 / no-rc-grain / qpmax=69 / qpmin=0 / no-const-vbv / sar=0 / overscan=0 / videoformat=5 / range=0 / colorprim=1 / transfer=2 / colormatrix=2 / chromaloc=0 / display-window=0 / max-cll=0,0 / min-luma=0 / max-luma=1023 / log2-max-poc-lsb=8 / vui-timing-info / vui-hrd-info / slices=1 / no-opt-qp-pps / no-opt-ref-list-length-pps / no-multi-pass-opt-rps / scenecut-bias=0.05 / no-opt-cu-delta-qp / no-aq-motion / no-hdr / no-hdr-opt / no-dhdr10-opt / no-idr-recovery-sei / analysis-reuse-level=5 / scale-factor=0 / refine-intra=0 / refine-inter=0 / refine-mv=0 / no-limit-sao / ctu-info=0 / no-lowpass-dct / refine-mv-type=0 / copy-pic=1 / max-ausize-factor=1.0 / no-dynamic-refine / no-single-sei
  33. Default                                  : Yes
  34. Forced                                   : No
  35. Color range                              : Limited
  36. Color primaries                          : BT.709
  37. Audio
  38. ID                                       : 2
  39. Format                                   : AC-3
  40. Format/Info                              : Audio Coding 3
  41. Commercial name                          : Dolby Digital
  42. Codec ID                                 : A_AC3
  43. Duration                                 : 1 h 49 min
  44. Bit rate mode                            : Constant
  45. Bit rate                                 : 640 kb/s
  46. Channel(s)                               : 6 channels
  47. Channel layout                           : L R C LFE Ls Rs
  48. Sampling rate                            : 48.0 kHz
  49. Frame rate                               : 31.250 FPS (1536 SPF)
  50. Compression mode                         : Lossy
  51. Stream size                              : 502 MiB (12%)
  52. Language                                 : English
  53. Service kind                             : Complete Main
  54. Default                                  : Yes
  55. Forced                                   : No
  56. Text #1
  57. ID                                       : 3
  58. Format                                   : PGS
  59. Muxing mode                              : zlib
  60. Codec ID                                 : S_HDMV/PGS
  61. Codec ID/Info                            : Picture based subtitle format used on BDs/HD-DVDs
  62. Duration                                 : 1 h 47 min
  63. Bit rate                                 : 89.9 kb/s
  64. Count of elements                        : 4278
  65. Stream size                              : 69.0 MiB (2%)
  66. Title                                    : 英文
  67. Language                                 : English
  68. Default                                  : No
  69. Forced                                   : No
  70. Text #2
  71. ID                                       : 4
  72. Format                                   : PGS
  73. Muxing mode                              : zlib
  74. Codec ID                                 : S_HDMV/PGS
  75. Codec ID/Info                            : Picture based subtitle format used on BDs/HD-DVDs
  76. Duration                                 : 1 h 48 min
  77. Bit rate                                 : 30.1 kb/s
  78. Count of elements                        : 2756
  79. Stream size                              : 23.4 MiB (1%)
  80. Title                                    : 简体中文
  81. Language                                 : Chinese
  82. Default                                  : Yes
  83. Forced                                   : No
  84. Text #3
  85. ID                                       : 5
  86. Format                                   : PGS
  87. Muxing mode                              : zlib
  88. Codec ID                                 : S_HDMV/PGS
  89. Codec ID/Info                            : Picture based subtitle format used on BDs/HD-DVDs
  90. Duration                                 : 1 h 48 min
  91. Bit rate                                 : 31.8 kb/s
  92. Count of elements                        : 2756
  93. Stream size                              : 24.7 MiB (1%)
  94. Title                                    : 繁体中文
  95. Language                                 : Chinese
  96. Default                                  : No
  97. Forced                                   : No
  98. Text #4
  99. ID                                       : 6
  100. Format                                   : PGS
  101. Muxing mode                              : zlib
  102. Codec ID                                 : S_HDMV/PGS
  103. Codec ID/Info                            : Picture based subtitle format used on BDs/HD-DVDs
  104. Duration                                 : 1 h 44 min
  105. Bit rate                                 : 50.0 kb/s
  106. Count of elements                        : 3064
  107. Stream size                              : 37.4 MiB (1%)
  108. Title                                    : 简英双语
  109. Language                                 : Chinese
  110. Default                                  : No
  111. Forced                                   : No
  112. Text #5
  113. ID                                       : 7
  114. Format                                   : PGS
  115. Muxing mode                              : zlib
  116. Codec ID                                 : S_HDMV/PGS
  117. Codec ID/Info                            : Picture based subtitle format used on BDs/HD-DVDs
  118. Duration                                 : 1 h 44 min
  119. Bit rate                                 : 51.5 kb/s
  120. Count of elements                        : 3064
  121. Stream size                              : 38.5 MiB (1%)
  122. Title                                    : 繁英双语
  123. Language                                 : Chinese
  124. Default                                  : No
  125. Forced                                   : No
  126. Text #6
  127. ID                                       : 8
  128. Format                                   : PGS
  129. Muxing mode                              : zlib
  130. Codec ID                                 : S_HDMV/PGS
  131. Codec ID/Info                            : Picture based subtitle format used on BDs/HD-DVDs
  132. Duration                                 : 1 h 48 min
  133. Bit rate                                 : 52.3 kb/s
  134. Count of elements                        : 3738
  135. Stream size                              : 40.8 MiB (1%)
  136. Title                                    : 原盘港繁中字
  137. Language                                 : Chinese
  138. Default                                  : No
  139. Forced                                   : No
  140. Text #7
  141. ID                                       : 9
  142. Format                                   : PGS
  143. Muxing mode                              : zlib
  144. Codec ID                                 : S_HDMV/PGS
  145. Codec ID/Info                            : Picture based subtitle format used on BDs/HD-DVDs
  146. Duration                                 : 1 h 48 min
  147. Bit rate                                 : 54.9 kb/s
  148. Count of elements                        : 3876
  149. Stream size                              : 42.8 MiB (1%)
  150. Title                                    : 原盘台繁中字
  151. Language                                 : Chinese
  152. Default                                  : No
  153. Forced                                   : No
  154. Menu
  155. 00:00:00.000                             : en:Chapter 01
  156. 00:04:13.795                             : en:Chapter 02
  157. 00:08:39.060                             : en:Chapter 03
  158. 00:13:51.121                             : en:Chapter 04
  159. 00:18:04.041                             : en:Chapter 05
  160. 00:25:38.328                             : en:Chapter 06
  161. 00:29:25.138                             : en:Chapter 07
  162. 00:33:52.697                             : en:Chapter 08
  163. 00:42:03.437                             : en:Chapter 09
  164. 00:47:46.947                             : en:Chapter 10
  165. 00:54:15.043                             : en:Chapter 11
  166. 00:59:24.435                             : en:Chapter 12
  167. 01:02:49.390                             : en:Chapter 13
  168. 01:05:41.145                             : en:Chapter 14
  169. 01:09:55.399                             : en:Chapter 15
  170. 01:17:11.501                             : en:Chapter 16
  171. 01:20:03.673                             : en:Chapter 17
  172. 01:22:22.687                             : en:Chapter 18
  173. 01:24:27.562                             : en:Chapter 19
  174. 01:27:52.850                             : en:Chapter 20
  175. 01:32:35.633                             : en:Chapter 21
  176. 01:38:17.433                             : en:Chapter 22
  177. 01:41:13.192                             : en:Chapter 23
  178. 01:45:45.339                             : en:Chapter 24





此处一般会放置磁力链或种子下载链接,不过此链接需要注册会员才能看到,点击“立即注册”
磁力链下载【下载链接仅对注册会员开放,登陆后可见】
BT9527电影天堂 1、BT9527电影天堂提供的BT文件均来源于互联网抓取,只供网友学习交流、技术提升使用。
2、我们遵守BitTorrent点对点协议原则,任何版权问题请联系原资源发布商,我们不处理任何版权纠纷,谢谢!如有争议请联系邮箱:BT9527#hotmail.com(#换成@)
3、如果您发现某页面或地址有错误,请联系站长邮箱BT9527#hotmail.com(#换成@),我们会尽快处理。您的热心是对BT9527电影天堂最大的支持。
4、本站建议去正规影院观看电影以支持电影行业发展。
最新回复 (0)

你可以在 登录 or 注册 后,对此帖发表评论!

返回