火星人玩转地球[简繁英字幕].Mars.Attacks.1996.BluRay.1080p.x265.10bit-MiniHD 3.76GB

版主小s 3月前 130

✔资源类型:暂未分类   ✔电影年份:更 早   ✔电影地区:欧美   ✔电影分类:喜剧

◎标  题 火星人玩转地球
◎译  名 星战毁灭者(台) / 火星人大侵袭 / 外星人进攻 / 火星人袭击地球
◎片  名 Mars Attacks!
◎年  代 1996
◎产  地 美国
◎类  别 喜剧 / 科幻 / 奇幻
◎语  言 英语 / 法语
◎上映日期 1996-12-13(美国)
◎IMDb评分 6.4/10 (220139人评价)
◎IMDb链接 https://www.imdb.com/title/tt0116996/
◎豆瓣评分 7.3/10 (41136人评价)
◎豆瓣链接 https://movie.douban.com/subject/1297715/
◎片  长 106 分钟
◎导  演 蒂姆·波顿 Tim Burton
◎编  剧 乔纳森·詹姆斯 Jonathan Gems
       Woody Gelman Woody Gelman
       Norman Saunders Norman Saunders
       Wally Wood Wally Wood
◎演  员 杰克·尼科尔森 Jack Nicholson
       格伦·克洛斯 Glenn Close
       杰克·布莱克 Jack Black
       安妮特·贝宁 Annette Bening
       皮尔斯·布鲁斯南 Pierce Brosnan
       丹尼·德维托 Danny DeVito
       马丁·肖特 Martin Short
       莎拉·杰茜卡·帕克 Sarah Jessica Parker
       迈克尔·J·福克斯 Michael J. Fox
       娜塔莉·波特曼 Natalie Portman
       威利·加森 Willie Garson
       卡尔·华盛顿 Carl Washington
       保罗·温菲尔德 Paul Winfield
       西尔维娅·西德尼 Sylvia Sidney
       迈克尔·瑞利·伯克 Michael Reilly Burke
       亚历山德拉·斯莫瑟斯 Alexandra Smothers
       克里斯蒂娜·艾伯盖特 Christina Applegate
       珍妮·莫里 Jeanne Mori
       帕姆·格里尔 Pam Grier
       卢卡斯·哈斯 Lukas Haas
       罗德·斯泰格尔 Rod Steiger
       汤姆·琼斯 Tom Jones
       弗兰克·维尔克 Frank Welker
       约翰·芬尼根 John Finnegan
       布莱恩·黑利 Brian Haley
       瑞贝卡·布罗萨德 Rebecca Broussard
       史蒂夫·瓦伦丁 Steve Valentine
       大卫·谢里尔 David Sherrill
       布兰登·哈蒙德 Brandon Hammond
       澳澜·琼斯 O-Lan Jones
       Gloria M. Malgarini Gloria M. Malgarini
       约瑟夫·梅赫尔 Joseph Maher
       丽莎·玛丽 Lisa Marie
       Scott McKinley Scott McKinley
       C. Wayne Owens C. Wayne Owens
       Joseph Patrick Moynihan Joseph Patrick Moynihan
       Valerie Wildman Valerie Wildman
       Maria Celeste Genitempo Maria Celeste Genitempo
       Jonathan Emerson Jonathan Emerson
       恩里克·卡斯蒂略 Enrique Castillo
       朱利安·巴恩斯 Julian Barnes
       杰兹·斯科利莫夫斯基 Jerzy Skolimowski
       巴贝特·施罗德 Barbet Schroeder
       兰斯·霍华德 Rance Howard
       乔·唐·巴克 Joe Don Baker
       Ray J Ray J
       吉姆·布朗 Jim Brown
       Jim Beatty Jim Beatty
       马修杰姆斯居尔布兰松 Matthew James Gulbranson
       Mark S. Miller Mark S. Miller
       Paul Deason Paul Deason
       Laurie Parker Laurie Parker
       拉瑞·弗兰科 Larry J. Franco
       蒂姆·波顿 Tim Burton
       丹尼·艾夫曼 Danny Elfman
       Peter Suschitzky Peter Suschitzky
       克里斯·莱本森 Chris Lebenzon
       珍妮·麦卡蒂 Jeanne McCarthy
       马修·巴里 Matthew Barry
       威恩·托马斯 Wynn Thomas
       James Hegedus James Hegedus
       约翰·德克斯特 John Dexter
       南茜·黑格 Nancy Haigh
       柯琳·阿特伍德 Colleen Atwood
       Robin L. Neal Robin L. Neal
       瓦利·奥雷利 Valli O'Reilly
       维·尼尔 Ve Neill
       Candace Neal Candace Neal
       乔伊·萨帕塔 Joy Zapata
       Gary Archer Gary Archer
       Julie Hewett Julie Hewett
       Barry R. Koper Barry R. Koper
       诺玛·李 Norma Lee
       Brian Penikas Brian Penikas
       Bron Roylance Bron Roylance
       福尔图纳托·弗拉塔西奥 Fortunato Frattasio
       Mike Ellis Mike Ellis
       方·戴维斯 Fon Davis
       迈克尔·L·芬克 Michael L. Fink
       史蒂夫·高利 Steve Gawley
       Erik Dehkhoda Erik Dehkhoda
       杰拉德·古施密特 Gerald Gutschmidt
       David Stump David Stump
       米歇尔·莫恩 Michele Moen
       Matt Farell Matt Farell
       Erik Mattson Erik Mattson
       Pat Sweeney Pat Sweeney
       吉姆·米切尔 Jim Mitchell
       Dwayne McClintock Dwayne McClintock
       Edwin Dunkley Edwin Dunkley
       拉塞尔·厄尔 Russell Earl
       罗恩·布朗 Ronn Brown
       Matt Head Matt Head
       凯文·安德鲁·史密斯 Kevin Andrew Smith
       D. David Calzada D. David Calzada
       罗杰·盖耶特 Roger Guyett
       Edward J. Franklin Edward J. Franklin
       David Andrews David Andrews
       Durant Schoon Durant Schoon
       Mark Moore Mark Moore
       Chris Armstrong Chris Armstrong
       Charles Bailey Charles Bailey
       Jill Brooks Jill Brooks
       Sue Campbell Sue Campbell
       Tami Carter Tami Carter
       Theresa Corrao Theresa Corrao
       特拉维斯·鲍曼 Travis Baumann
       Tony Hudson Tony Hudson
       Kurt E. Soderling Kurt E. Soderling
       本·斯诺 Ben Snow
       加内克·西尔斯 Janek Sirrs
       Ellen Somers Ellen Somers
       David Weitzberg David Weitzberg
       罗伯特·韦弗 Robert Weaver
       R·克里斯托弗·怀特 R. Christopher White
       弗兰克·格莱瓦特 Frank Gravatt
       盖伊·威廉斯 Guy Williams
       D·瓦尔特·卡梅伦 D. Walt Cameron
       Christian Kubsch Christian Kubsch
       迈克尔·乔伊斯 Michael Joyce
       David A. Smith David A. Smith
       罗伯特·斯科塔克 Robert Skotak
       斯科特·查尔斯·斯图瓦特 Scott Charles Stewart
       潘国瑜 Ellen Poon
       杰克·莫多万 Jack Mongovan
       Lauren Alexandra Ritchie Lauren Alexandra Ritchie
       亚伦·海耶 Aaron Haye

◎标  签 科幻 / 美国 / 喜剧 / TimBurton / 恶搞 / 美国电影 / 蒂姆·伯顿 / 黑色幽默

◎简  介
  5月9日的傍晚,肯塔基州某地燃烧的牛群狂奔过农场,一架飞碟腾空而起……美国政府很快探知火星人的飞碟已集结在地球周围,经过一番思量,美国总统戴尔(杰克•尼科尔森 Jack Nicholson 饰)决定向世界发布火星人到来的消息。在白宫中,总统夫人玛莎(格伦•克洛斯 Glenn Close 饰)和女儿戴菲(娜塔丽•波曼 Natalie Portman 饰)面对火星人到来像谈论一场寻常的访问活动;在纽约,从事新闻业的史东与娜塔莉正在筹备采访唐纳博士(皮尔斯•布鲁斯南 Pierce Brosnan 饰);在堪萨斯,瑞奇的哥哥即将担任接见火星人的守卫军人;在拉斯维加斯,昔日拳王拜伦如今为家庭生计苦苦工作。终于到了火星人降临的时刻,他们发出了和平的信号,但之后却是大开杀戒,火星人一再的戏弄政府高层,人们束手无策,然而,真正能战胜火星人的武器出乎了所有人的预料……...
  1. ##### MediaInfo ######
  2. General
  3. Unique ID                                : 283798619698354232714381395681977871010 (0xD581A040924C66802750F5AAAF10AAA2)
  4. Complete name                            : Mars.Attacks.1996.BluRay.1080p.x265.10bit-MiniHD.mkv
  5. Format                                   : Matroska
  6. Format version                           : Version 4
  7. File size                                : 3.76 GiB
  8. Duration                                 : 1 h 45 min
  9. Overall bit rate                         : 5 091 kb/s
  10. Encoded date                             : UTC 2018-02-06 08:05:01
  11. Writing application                      : mkvmerge v20.0.0 ('I Am The Sun') 64-bit
  12. Writing library                          : libebml v1.3.5 + libmatroska v1.4.8
  13. Video
  14. ID                                       : 1
  15. Format                                   : HEVC
  16. Format/Info                              : High Efficiency Video Coding
  17. Format profile                           : Main 10@L4@High
  18. Codec ID                                 : V_MPEGH/ISO/HEVC
  19. Duration                                 : 1 h 45 min
  20. Bit rate                                 : 4 419 kb/s
  21. Width                                    : 1 920 pixels
  22. Height                                   : 800 pixels
  23. Display aspect ratio                     : 2.40:1
  24. Frame rate mode                          : Constant
  25. Frame rate                               : 23.976 (24000/1001/53354) FPS
  26. Color space                              : YUV
  27. Chroma subsampling                       : 4:2:0
  28. Bit depth                                : 10 bits
  29. Bits/(Pixel*Frame)                       : 0.120
  30. Stream size                              : 3.26 GiB (87%)
  31. Title                                    : 视频
  32. Default                                  : Yes
  33. Forced                                   : No
  34. Color range                              : Limited
  35. Color primaries                          : BT.709
  36. Audio
  37. ID                                       : 2
  38. Format                                   : AC-3
  39. Format/Info                              : Audio Coding 3
  40. Commercial name                          : Dolby Digital
  41. Codec ID                                 : A_AC3
  42. Duration                                 : 1 h 45 min
  43. Bit rate mode                            : Constant
  44. Bit rate                                 : 640 kb/s
  45. Channel(s)                               : 6 channels
  46. Channel layout                           : L R C LFE Ls Rs
  47. Sampling rate                            : 48.0 kHz
  48. Frame rate                               : 31.250 FPS (1536 SPF)
  49. Compression mode                         : Lossy
  50. Stream size                              : 484 MiB (13%)
  51. Title                                    : 英语ac3-5.1@640kbps
  52. Language                                 : English
  53. Service kind                             : Complete Main
  54. Default                                  : Yes
  55. Forced                                   : No
  56. Text #1
  57. ID                                       : 3
  58. Format                                   : PGS
  59. Muxing mode                              : zlib
  60. Codec ID                                 : S_HDMV/PGS
  61. Codec ID/Info                            : Picture based subtitle format used on BDs/HD-DVDs
  62. Duration                                 : 1 h 39 min
  63. Bit rate                                 : 15.8 kb/s
  64. Count of elements                        : 1935
  65. Stream size                              : 11.2 MiB (0%)
  66. Title                                    : 简中
  67. Language                                 : Chinese
  68. Default                                  : Yes
  69. Forced                                   : No
  70. Text #2
  71. ID                                       : 4
  72. Format                                   : PGS
  73. Muxing mode                              : zlib
  74. Codec ID                                 : S_HDMV/PGS
  75. Codec ID/Info                            : Picture based subtitle format used on BDs/HD-DVDs
  76. Duration                                 : 1 h 45 min
  77. Bit rate                                 : 17.9 kb/s
  78. Count of elements                        : 2188
  79. Stream size                              : 13.5 MiB (0%)
  80. Title                                    : 繁中
  81. Language                                 : Chinese
  82. Default                                  : No
  83. Forced                                   : No
  84. Text #3
  85. ID                                       : 5
  86. Format                                   : PGS
  87. Muxing mode                              : zlib
  88. Codec ID                                 : S_HDMV/PGS
  89. Codec ID/Info                            : Picture based subtitle format used on BDs/HD-DVDs
  90. Duration                                 : 1 h 45 min
  91. Bit rate                                 : 26.4 kb/s
  92. Count of elements                        : 2314
  93. Stream size                              : 19.8 MiB (1%)
  94. Title                                    : 英语
  95. Language                                 : English
  96. Default                                  : No
  97. Forced                                   : No





此处一般会放置磁力链或种子下载链接,不过此链接需要注册会员才能看到,点击“立即注册”
磁力链下载【下载链接仅对注册会员开放,登陆后可见】
BT9527电影天堂 1、BT9527电影天堂提供的BT文件均来源于互联网抓取,只供网友学习交流、技术提升使用。
2、我们遵守BitTorrent点对点协议原则,任何版权问题请联系原资源发布商,我们不处理任何版权纠纷,谢谢!如有争议请联系邮箱:BT9527#hotmail.com(#换成@)
3、如果您发现某页面或地址有错误,请联系站长邮箱BT9527#hotmail.com(#换成@),我们会尽快处理。您的热心是对BT9527电影天堂最大的支持。
4、本站建议去正规影院观看电影以支持电影行业发展。
最新回复 (0)

你可以在 登录 or 注册 后,对此帖发表评论!

返回
发新帖