旺角卡门[国粤多音轨/简繁英字幕].As.Tears.Go.By.1988.1080p.x265.10bit.2Audio-MiniHD 3.05GB

版主小s 10天前 36

✔资源类型:暂未分类   ✔电影年份:更 早   ✔电影地区:香港   ✔电影分类:剧情

◎标  题 旺角卡门
◎译  名 热血男儿(台) / As Tears Go By
◎片  名 旺角卡門
◎年  代 1988
◎产  地 中国香港
◎类  别 剧情 / 爱情 / 犯罪
◎语  言 粤语
◎上映日期 1988-06-09(中国香港)
◎IMDb评分 7/10 (9817人评价)
◎IMDb链接 https://www.imdb.com/title/tt0096461/
◎豆瓣链接 https://movie.douban.com/subject/1304624/
◎片  长 102 分钟

◎标  签 王家卫 / 香港 / 张曼玉 / 刘德华 / 香港电影 / 爱情 / 黑帮 / 旺角卡门

◎简  介
    香港九龙区旺角混混阿杰(刘德华)做事利落重情义,颇有老大风范,为了照顾做事冲动又好面子的小弟乌蝇(张学友),他不停地在各种大小麻烦中周旋,甚至不惜为乌蝇与黑道狠角色(万梓良)结仇。                                    
                                  阿杰表妹阿娥(张曼玉)前来旺角看病暂住他家,两人慢慢互生情愫,但因为担心自己的身份最终会给阿娥带来伤害,阿杰选择了将心事埋藏。待阿杰明白真情抑压不住想对命运做番抵抗时,乌蝇却再次因好面子面临生命危险,于是一道友情与爱情必选其一的难题重又摆在阿杰面前。
  1. ##### MediaInfo ######
  2. General
  3. Unique ID                                : 290372350794567616911940199052627006294 (0xDA73AE37FBB912DA0935EFA19AD9D356)
  4. Complete name                            : As.Tears.Go.By.1988.1080p.x265.10bit.2Audio-MiniHD.mkv
  5. Format                                   : Matroska
  6. Format version                           : Version 4
  7. File size                                : 3.05 GiB
  8. Duration                                 : 1 h 38 min
  9. Overall bit rate                         : 4 409 kb/s
  10. Encoded date                             : UTC 2018-01-23 11:48:51
  11. Writing application                      : mkvmerge v20.0.0 ('I Am The Sun') 64-bit
  12. Writing library                          : libebml v1.3.5 + libmatroska v1.4.8
  13. Video
  14. ID                                       : 1
  15. Format                                   : HEVC
  16. Format/Info                              : High Efficiency Video Coding
  17. Format profile                           : Main 10@L4@Main
  18. Codec ID                                 : V_MPEGH/ISO/HEVC
  19. Duration                                 : 1 h 38 min
  20. Bit rate                                 : 3 472 kb/s
  21. Width                                    : 1 920 pixels
  22. Height                                   : 1 080 pixels
  23. Display aspect ratio                     : 16:9
  24. Frame rate mode                          : Constant
  25. Frame rate                               : 24.000 FPS
  26. Color space                              : YUV
  27. Chroma subsampling                       : 4:2:0
  28. Bit depth                                : 10 bits
  29. Bits/(Pixel*Frame)                       : 0.070
  30. Stream size                              : 2.40 GiB (79%)
  31. Writing library                          : x265 2.5+2-18fa144d453e:[Windows][GCC 7.1.0][64 bit] 10bit
  32. Encoding settings                        : cpuid=533541173503 / frame-threads=3 / numa-pools=8 / wpp / no-pmode / no-pme / no-psnr / no-ssim / log-level=2 / input-csp=1 / input-res=1920x1080 / interlace=0 / total-frames=142510 / level-idc=0 / high-tier=1 / uhd-bd=0 / ref=5 / no-allow-non-conformance / no-repeat-headers / annexb / no-aud / no-hrd / info / hash=0 / no-temporal-layers / no-open-gop / min-keyint=1 / keyint=360 / bframes=8 / b-adapt=2 / b-pyramid / bframe-bias=0 / rc-lookahead=40 / lookahead-slices=4 / NTMzNTQ=uuDQuD2mJt9fsCf / scenecut=40 / no-intra-refresh / ctu=32 / min-cu-size=8 / rect / no-amp / max-tu-size=16 / tu-inter-depth=2 / tu-intra-depth=2 / limit-tu=4 / rdoq-level=1 / dynamic-rd=0.00 / ssim-rd / signhide / no-tskip / nr-intra=0 / nr-inter=0 / no-constrained-intra / no-strong-intra-smoothing / max-merge=3 / limit-refs=2 / limit-modes / me=3 / subme=5 / merange=25 / temporal-mvp / weightp / weightb / no-analyze-src-pics / deblock=-1:-1 / no-sao / no-sao-non-deblock / rd=4 / no-early-skip / rskip / no-fast-intra / no-tskip-fast / no-cu-lossless / b-intra / rdpenalty=1 / psy-rd=0.00 / psy-rdoq=3.00 / no-rd-refine / analysis-reuse-mode=0 / no-lossless / cbqpoffs=-2 / crqpoffs=-2 / rc=crf / crf=19.0 / qcomp=0.80 / qpstep=4 / stats-write=0 / stats-read=0 / ipratio=1.40 / pbratio=1.30 / aq-mode=2 / aq-strength=0.70 / cutree / zone-count=0 / no-strict-cbr / qg-size=16 / no-rc-grain / qpmax=69 / qpmin=0 / no-const-vbv / sar=1 / overscan=0 / videoformat=5 / range=0 / colorprim=1 / transfer=2 / colormatrix=2 / chromaloc=0 / display-window=0 / max-cll=0,0 / min-luma=0 / max-luma=1023 / log2-max-poc-lsb=8 / vui-timing-info / vui-hrd-info / slices=1 / opt-qp-pps / opt-ref-list-length-pps / no-multi-pass-opt-rps / scenecut-bias=0.05 / no-opt-cu-delta-qp / no-aq-motion / no-hdr / no-hdr-opt / no-dhdr10-opt / analysis-reuse-level=5 / scale-factor=0 / refine-intra=0 / refine-inter=0 / refine-mv=0 / no-limit-sao / ctu-info=0
  33. Language                                 : Chinese
  34. Default                                  : Yes
  35. Forced                                   : No
  36. Color range                              : Limited
  37. Color primaries                          : BT.709
  38. Audio #1
  39. ID                                       : 2
  40. Format                                   : AC-3
  41. Format/Info                              : Audio Coding 3
  42. Commercial name                          : Dolby Digital
  43. Codec ID                                 : A_AC3
  44. Duration                                 : 1 h 38 min
  45. Bit rate mode                            : Constant
  46. Bit rate                                 : 640 kb/s
  47. Channel(s)                               : 6 channels
  48. Channel layout                           : L R C LFE Ls Rs
  49. Sampling rate                            : 48.0 kHz
  50. Frame rate                               : 31.250 FPS (1536 SPF)
  51. Compression mode                         : Lossy
  52. Stream size                              : 453 MiB (15%)
  53. Title                                    : 粤语
  54. Language                                 : Chinese
  55. Service kind                             : Complete Main
  56. Default                                  : Yes
  57. Forced                                   : No
  58. Audio #2
  59. ID                                       : 3
  60. Format                                   : AC-3
  61. Format/Info                              : Audio Coding 3
  62. Commercial name                          : Dolby Digital
  63. Codec ID                                 : A_AC3
  64. Duration                                 : 1 h 38 min
  65. Bit rate mode                            : Constant
  66. Bit rate                                 : 224 kb/s
  67. Channel(s)                               : 2 channels
  68. Channel layout                           : L R
  69. Sampling rate                            : 48.0 kHz
  70. Frame rate                               : 31.250 FPS (1536 SPF)
  71. Compression mode                         : Lossy
  72. Stream size                              : 159 MiB (5%)
  73. Title                                    : 国语
  74. Language                                 : Chinese
  75. Service kind                             : Complete Main
  76. Default                                  : No
  77. Forced                                   : No
  78. Text #1
  79. ID                                       : 4
  80. Format                                   : PGS
  81. Muxing mode                              : zlib
  82. Codec ID                                 : S_HDMV/PGS
  83. Codec ID/Info                            : Picture based subtitle format used on BDs/HD-DVDs
  84. Duration                                 : 1 h 31 min
  85. Bit rate                                 : 38.2 kb/s
  86. Count of elements                        : 1930
  87. Stream size                              : 25.0 MiB (1%)
  88. Title                                    : 繁体
  89. Language                                 : Chinese
  90. Default                                  : Yes
  91. Forced                                   : No
  92. Text #2
  93. ID                                       : 5
  94. Format                                   : PGS
  95. Muxing mode                              : zlib
  96. Codec ID                                 : S_HDMV/PGS
  97. Codec ID/Info                            : Picture based subtitle format used on BDs/HD-DVDs
  98. Duration                                 : 1 h 31 min
  99. Bit rate                                 : 37.6 kb/s
  100. Count of elements                        : 1930
  101. Stream size                              : 24.7 MiB (1%)
  102. Title                                    : 简体
  103. Language                                 : Chinese
  104. Default                                  : No
  105. Forced                                   : No
  106. Text #3
  107. ID                                       : 6
  108. Format                                   : PGS
  109. Muxing mode                              : zlib
  110. Codec ID                                 : S_HDMV/PGS
  111. Codec ID/Info                            : Picture based subtitle format used on BDs/HD-DVDs
  112. Duration                                 : 1 h 32 min
  113. Bit rate                                 : 22.8 kb/s
  114. Count of elements                        : 1774
  115. Stream size                              : 15.1 MiB (0%)
  116. Title                                    : 英文
  117. Language                                 : English
  118. Default                                  : No
  119. Forced                                   : No
  120. Text #4
  121. ID                                       : 7
  122. Format                                   : PGS
  123. Muxing mode                              : zlib
  124. Codec ID                                 : S_HDMV/PGS
  125. Codec ID/Info                            : Picture based subtitle format used on BDs/HD-DVDs
  126. Duration                                 : 1 h 31 min
  127. Bit rate                                 : 26.9 kb/s
  128. Count of elements                        : 1640
  129. Stream size                              : 17.6 MiB (1%)
  130. Title                                    : 日文
  131. Language                                 : Japanese
  132. Default                                  : No
  133. Forced                                   : No





此处一般会放置磁力链或种子下载链接,不过此链接需要注册会员才能看到,点击“立即注册”
磁力链下载【下载链接仅对注册会员开放,登陆后可见】
BT9527电影天堂 1、BT9527电影天堂提供的BT文件均来源于互联网抓取,只供网友学习交流、技术提升使用。
2、我们遵守BitTorrent点对点协议原则,任何版权问题请联系原资源发布商,我们不处理任何版权纠纷,谢谢!如有争议请联系邮箱:BT9527#hotmail.com(#换成@)
3、如果您发现某页面或地址有错误,请联系站长邮箱BT9527#hotmail.com(#换成@),我们会尽快处理。您的热心是对BT9527电影天堂最大的支持。
4、本站建议去正规影院观看电影以支持电影行业发展。
最新回复 (0)

你可以在 登录 or 注册 后,对此帖发表评论!

返回
发新帖