新龙门客栈[国粤多音轨].New.Dragon.Inn.1992.1080p.BluRay.1080p.x265.10bit.2Audio-MiniHD 14.11GB

版主小s 10天前 120

✔资源类型:暂未分类   ✔电影年份:更 早   ✔电影地区:香港   ✔电影分类:动作

◎标  题 新龙门客栈
◎译  名 New Dragon Gate Inn
◎片  名 新龍門客棧
◎年  代 1992
◎产  地 中国香港 / 中国大陆
◎类  别 动作 / 爱情 / 武侠 / 古装
◎语  言 汉语普通话 / 粤语
◎上映日期 2012-02-24(中国大陆) / 1992-08-27(中国香港)
◎IMDb评分 7.2/10 (4303人评价)
◎IMDb链接 https://www.imdb.com/title/tt0105859/
◎豆瓣评分 8.6/10 (400571人评价)
◎豆瓣链接 https://movie.douban.com/subject/1292287/
◎片  长 88分钟
◎导  演 李惠民 Raymond Lee
◎编  剧 徐克 Hark Tsui
       张炭 Cheung Tan
       何冀平 Jiping He
◎演  员 张曼玉 Maggie Cheung
       林青霞 Brigitte Lin
       梁家辉 Tony Leung
       甄子丹 Donnie Yen
       熊欣欣 Xinxin Xiong
       刘洵 Shun Lau
       任世官 Shi-Kwan Yen
       吴启华 Lawrence Ng
       袁祥仁 Cheung-Yan Yuen
       徐锦江 Elvis Tsui
       郑希怡 Hei-Yi Cheng
       王彤川 Tongchuan Wang
       王伟顺 Wai Shun Wong
       蔡浩 Ho Choi
       元彬 Bun Yuen
       陈志辉 Chi Fai Chan
       邢金沙 Jinsha  Xing
       施懿 Yi Shi
       冯雪瑞 Xuerui Feng
       廖静妮 Jingni Liao
       魏晶琦 Rita Wei
       徐克 Hark Tsui
       程小东 Siu-Tung Ching
       吴思远 See-Yuen Ng
       吴志明 Ji-myeong Oh
       曹敬文 King Man Cho
       陈振 Chan Chan
       佘伟森 Wai Sum Shia
       刘思乐 Si-Lok Lau
       商易 Yi Shang
       陈斐烈 Fei Lit Chan
       周锦荣 Gam-Wing Chow
       黄岳泰 Arthur Wong
       冯远文 Yuen Man Fung
       刘满棠 Moon-Tong Lau
       潘雄 Hung Poon
       张叔平 William Chang
       钟移风 Yee-Fung Chung
       赵国信 Kwok-Chun Chiu
       梁志兴 Chi-Hing Leung
       梅广诚 Kwong-sing Mui
       程天娇 Tin-kiu Ching
       潘国铧 Kwok Wah Poon
       刘美珍 Mei-Jan Lau
       仇小梅 Siu-Mui Chau
       文润铃 Yun-Ling Man
       潘敏华 Min-Hua Pan
       何尤春香 Ho Yau Chun Heung
       许安 Koan Hui
       钟侃燮 Hon-Sit Chung
       陶云 Yun Tao
       郑永潮 Wing-Chiu Cheng
       程小东 Siu-Tung Ching
       元彬 Bun Yuen
       张耀星 Yiu-Sing Cheung
       熊欣欣 Xinxin Xiong
       曹荣 Wing Cho
       鄒林 Lam Chow
       陈伟年 Wai-Nin Chan
       周瑞雄 Sui Hung Chow
       王永高 Wing-Ko Wong
       钟剑伟 Kim-Wai Chung
       吴锦超 Gam Chiu Ng
       罗丽香 Lai-Heung Law
       曾招儿 Chao-Yee Tsang
       黄若华 Yeuk-Wah Wong
       黄建雄 Kin-Hung Wong
       翟志超 Chat Chi-Chiu

◎简  介
  宦官专权的明朝中叶,东厂曹少钦(甄子丹)假造圣旨杀害了忠良杨宇轩,并想斩草除根杀死其后代。侠女邱莫言(林青霞)、江湖义士贺虎等人冒死救出忠良后代后,逃至边关沙漠里的龙门客栈,与杨宇轩部下周淮安(梁家辉)会合。龙门客栈实则黑店,老板娘金镶玉(张曼玉)利用乱世,以美貌和风骚 作诱饵杀人越货聚敛钱财,但她却为英俊潇洒的周淮安动了真心。为了摸清潜藏于龙门客栈中的出关暗道,周淮安将计就计,答应与金镶玉成亲。                                    
                                洞房花烛夜,楼上的周淮安与金镶玉各怀心事暗中较劲,楼下的邱莫言、贺虎等人也与东厂一众“走狗”展开了明争暗斗,战事一触即发。
  1. ##### MediaInfo ######
  2. General
  3. Unique ID                                : 153172419842164367166120998083994220795 (0x733BEF5C58670D452D4228836D3278FB)
  4. Complete name                            : New.Dragon.Inn.1992.1080p.BluRay.1080p.x265.10bit.2Audio-MiniHD.mkv
  5. Format                                   : Matroska
  6. Format version                           : Version 4
  7. File size                                : 14.1 GiB
  8. Duration                                 : 1 h 42 min
  9. Overall bit rate                         : 19.6 Mb/s
  10. Encoded date                             : UTC 2018-01-11 13:57:41
  11. Writing application                      : mkvmerge v19.0.0 ('Brave Captain') 32-bit
  12. Writing library                          : libebml v1.3.5 + libmatroska v1.4.8
  13. Video
  14. ID                                       : 1
  15. Format                                   : HEVC
  16. Format/Info                              : High Efficiency Video Coding
  17. Format profile                           : Main 10@L4@Main
  18. Codec ID                                 : V_MPEGH/ISO/HEVC
  19. Duration                                 : 1 h 42 min
  20. Bit rate                                 : 17.5 Mb/s
  21. Width                                    : 1 920 pixels
  22. Height                                   : 1 080 pixels
  23. Display aspect ratio                     : 16:9
  24. Frame rate mode                          : Constant
  25. Frame rate                               : 24.000 FPS
  26. Color space                              : YUV
  27. Chroma subsampling                       : 4:2:0
  28. Bit depth                                : 10 bits
  29. Bits/(Pixel*Frame)                       : 0.351
  30. Stream size                              : 12.6 GiB (89%)
  31. Writing library                          : x265 2.6+2-32e6f04b8713:[Windows][GCC 7.2.0][64 bit] 10bit
  32. Encoding settings                        : cpuid=533541173503 / frame-threads=3 / numa-pools=8 / wpp / no-pmode / no-pme / no-psnr / no-ssim / log-level=2 / input-csp=1 / input-res=1920x1080 / interlace=0 / total-frames=148173 / level-idc=0 / high-tier=1 / uhd-bd=0 / ref=5 / no-allow-non-conformance / no-repeat-headers / annexb / no-aud / no-hrd / info / hash=0 / no-temporal-layers / no-open-gop / min-keyint=1 / keyint=360 / bframes=8 / b-adapt=2 / b-pyramid / bframe-bias=0 / rc-lookahead=40 / lookahead-slices=4 / NTMzNTQ=uuDQuD2mJt9fsCf / scenecut=40 / no-intra-refresh / ctu=32 / min-cu-size=8 / rect / no-amp / max-tu-size=16 / tu-inter-depth=2 / tu-intra-depth=2 / limit-tu=4 / rdoq-level=1 / dynamic-rd=0.00 / ssim-rd / signhide / no-tskip / nr-intra=0 / nr-inter=0 / no-constrained-intra / no-strong-intra-smoothing / max-merge=3 / limit-refs=2 / limit-modes / me=3 / subme=5 / merange=25 / temporal-mvp / weightp / weightb / no-analyze-src-pics / deblock=-1:-1 / no-sao / no-sao-non-deblock / rd=4 / no-early-skip / rskip / no-fast-intra / no-tskip-fast / no-cu-lossless / b-intra / no-splitrd-skip / rdpenalty=1 / psy-rd=0.00 / psy-rdoq=3.00 / no-rd-refine / analysis-reuse-mode=0 / no-lossless / cbqpoffs=-2 / crqpoffs=-2 / rc=crf / crf=21.0 / qcomp=0.70 / qpstep=4 / stats-write=0 / stats-read=0 / ipratio=1.40 / pbratio=1.30 / aq-mode=1 / aq-strength=0.70 / cutree / zone-count=0 / no-strict-cbr / qg-size=16 / no-rc-grain / qpmax=69 / qpmin=0 / no-const-vbv / sar=1 / overscan=0 / videoformat=5 / range=0 / colorprim=1 / transfer=2 / colormatrix=2 / chromaloc=0 / display-window=0 / max-cll=0,0 / min-luma=0 / max-luma=1023 / log2-max-poc-lsb=8 / vui-timing-info / vui-hrd-info / slices=1 / no-opt-qp-pps / no-opt-ref-list-length-pps / no-multi-pass-opt-rps / scenecut-bias=0.05 / no-opt-cu-delta-qp / no-aq-motion / no-hdr / no-hdr-opt / no-dhdr10-opt / analysis-reuse-level=5 / scale-factor=0 / refine-intra=0 / refine-inter=0 / refine-mv=0 / no-limit-sao / ctu-info=0 / no-lowpass-dct / refine-mv-type=0 / copy-pic=1
  33. Language                                 : Chinese
  34. Default                                  : Yes
  35. Forced                                   : No
  36. Color range                              : Limited
  37. Color primaries                          : BT.709
  38. Audio #1
  39. ID                                       : 2
  40. Format                                   : DTS
  41. Format/Info                              : Digital Theater Systems
  42. Codec ID                                 : A_DTS
  43. Duration                                 : 1 h 42 min
  44. Bit rate mode                            : Constant
  45. Bit rate                                 : 1 509 kb/s
  46. Channel(s)                               : 6 channels
  47. Channel layout                           : C L R Ls Rs LFE
  48. Sampling rate                            : 48.0 kHz
  49. Frame rate                               : 93.750 FPS (512 SPF)
  50. Bit depth                                : 24 bits
  51. Compression mode                         : Lossy
  52. Stream size                              : 1.08 GiB (8%)
  53. Title                                    : 国语
  54. Language                                 : Chinese
  55. Default                                  : Yes
  56. Forced                                   : No
  57. Audio #2
  58. ID                                       : 3
  59. Format                                   : AC-3
  60. Format/Info                              : Audio Coding 3
  61. Commercial name                          : Dolby Digital
  62. Codec ID                                 : A_AC3
  63. Duration                                 : 1 h 42 min
  64. Bit rate mode                            : Constant
  65. Bit rate                                 : 640 kb/s
  66. Channel(s)                               : 6 channels
  67. Channel layout                           : L R C LFE Ls Rs
  68. Sampling rate                            : 48.0 kHz
  69. Frame rate                               : 31.250 FPS (1536 SPF)
  70. Compression mode                         : Lossy
  71. Stream size                              : 471 MiB (3%)
  72. Title                                    : 粤语
  73. Language                                 : Chinese
  74. Service kind                             : Complete Main
  75. Default                                  : No
  76. Forced                                   : No





此处一般会放置磁力链或种子下载链接,不过此链接需要注册会员才能看到,点击“立即注册”
磁力链下载【下载链接仅对注册会员开放,登陆后可见】
BT9527电影天堂 1、BT9527电影天堂提供的BT文件均来源于互联网抓取,只供网友学习交流、技术提升使用。
2、我们遵守BitTorrent点对点协议原则,任何版权问题请联系原资源发布商,我们不处理任何版权纠纷,谢谢!如有争议请联系邮箱:BT9527#hotmail.com(#换成@)
3、如果您发现某页面或地址有错误,请联系站长邮箱BT9527#hotmail.com(#换成@),我们会尽快处理。您的热心是对BT9527电影天堂最大的支持。
4、本站建议去正规影院观看电影以支持电影行业发展。
最新回复 (1)
  • JASON東爺 9天前
    2
    这么经典的电影还能更新,真不错啊

你可以在 登录 or 注册 后,对此帖发表评论!

返回
发新帖