我这样过了一生[国语音轨/繁英字幕].Kuei-mei.a.Woman.1985.BluRay.1080p.x265.10bit-MiniHD 5.39GB

版主小s 10天前 39

✔资源类型:暂未分类   ✔电影年份:更 早   ✔电影地区:台湾   ✔电影分类:剧情

◎标  题 我这样过了一生
◎译  名 Kuei-mei /  a Woman
◎片  名 我這樣過了一生
◎年  代 1985
◎产  地 中国台湾
◎类  别 剧情 / 家庭
◎语  言 汉语普通话
◎上映日期 1985-10-09(中国台湾)
◎IMDb评分 7.2/10 (169人评价)
◎IMDb链接 https://www.imdb.com/title/tt0092231/
◎豆瓣评分 8.4/10 (5985人评价)
◎豆瓣链接 https://movie.douban.com/subject/1302637/
◎片  长 120分钟
◎导  演 张毅 Yi Chang
◎编  剧 张毅 Yi Chang
       萧飒 Sa Hsiao
◎演  员 杨惠姗 Loretta H. Yang
       李立群 Lichun Lee
       刘明 Ming Liu
       文英 Wen Ying
       英英 Ying Ying
       丁也恬 Elten Ting
       吴敏 Min Wu
       邵罗辉 Luo Hui Shaw
       胡翔评 Hsiang-Ping Hu
       罗条慧 Laula Luo
       庹宗康 Tsuong Kang To
       罗文诚 Wen-cheng Lo
       徐国良 Kuo-Liang Hsu
       姚敏 Min Yao
       张弘毅 Hung-Yi Chang
       张弘毅 Hong-Yee Chang
       李亚东 Ya Tung Li
       汪晋臣 Wang Chin-Chen
       古金田 Chin-tien Ku
       王侠军 Hsia-Chun Wang
       杜笃之 Du-Che Tu
       杨布新 Ta-ching Yang

◎简  介
  桂美(杨惠姗)孤身从南京来到台湾寻找未婚夫未果,暂住表姐家中,却被当下等佣人对待,为摆脱寄人篱下的生活,她委身下嫁遭妻子遗弃的中年男人侯永年(李立群),成为三个孩子的继母,可是因为侯永年的嗜赌如命兼外养女人,令她犹如刚出狼窝又入虎穴。                                    
                                生下孩子后,桂美为了生计同侯永年远赴日本替人帮佣,又因机缘在当地一家中国餐馆学得一手好厨艺后返回台湾,独立开了“霞飞之家”餐厅,可是在她勤俭持家之时侯永年却故态复萌,而更让她觉寒心的,是长大成人各有成就的子女以及媳婿的自私与无情。
  1. ##### MediaInfo ######
  2. General
  3. Unique ID                                : 230271089914089704396970629180548672105 (0xAD3C9946F94608D85A46F29B8AEB6A69)
  4. Complete name                            : Kuei-mei.a.Woman.1985.BluRay.1080p.x265.10bit-MiniHD.mkv
  5. Format                                   : Matroska
  6. Format version                           : Version 4
  7. File size                                : 5.39 GiB
  8. Duration                                 : 2 h 1 min
  9. Overall bit rate                         : 6 362 kb/s
  10. Encoded date                             : UTC 2018-02-21 03:17:44
  11. Writing application                      : mkvmerge v20.0.0 ('I Am The Sun') 64-bit
  12. Writing library                          : libebml v1.3.5 + libmatroska v1.4.8
  13. Video
  14. ID                                       : 4
  15. Format                                   : HEVC
  16. Format/Info                              : High Efficiency Video Coding
  17. Format profile                           : Main 10@L4@Main
  18. Codec ID                                 : V_MPEGH/ISO/HEVC
  19. Duration                                 : 2 h 1 min
  20. Bit rate                                 : 5 875 kb/s
  21. Width                                    : 1 920 pixels
  22. Height                                   : 1 040 pixels
  23. Display aspect ratio                     : 1.85:1
  24. Frame rate mode                          : Constant
  25. Frame rate                               : 24.000 FPS
  26. Color space                              : YUV
  27. Chroma subsampling                       : 4:2:0
  28. Bit depth                                : 10 bits
  29. Bits/(Pixel*Frame)                       : 0.123
  30. Stream size                              : 4.98 GiB (92%)
  31. Writing library                          : x265 2.6+31-3712d13c09bf:[Windows][MSVC 1912][64 bit] 10bit
  32. Encoding settings                        : cpuid=533541173503 / frame-threads=3 / numa-pools=8 / wpp / no-pmode / no-pme / no-psnr / no-ssim / log-level=2 / csv / csv-log-level=0 / input-csp=1 / input-res=1920x1040 / interlace=0 / total-frames=174753 / level-idc=0 / high-tier=1 / uhd-bd=0 / ref=5 / no-allow-non-conformance / no-repeat-headers / annexb / no-aud / no-hrd / info / hash=0 / no-temporal-layers / no-open-gop / min-keyint=1 / keyint=360 / gop-lookahead=0 / bframes=9 / b-adapt=2 / b-pyramid / bframe-bias=0 / rc-lookahead=60 / lookahead-slices=4 / NTMzNTQ=uuDQuD2mJt9fsCf / scenecut=40 / radl=0 / no-intra-refresh / ctu=32 / min-cu-size=8 / rect / no-amp / max-tu-size=16 / tu-inter-depth=2 / tu-intra-depth=2 / limit-tu=4 / rdoq-level=1 / dynamic-rd=0.00 / ssim-rd / signhide / no-tskip / nr-intra=0 / nr-inter=0 / no-constrained-intra / no-strong-intra-smoothing / max-merge=3 / limit-refs=2 / limit-modes / me=3 / subme=5 / merange=25 / temporal-mvp / weightp / weightb / no-analyze-src-pics / deblock=-1:-1 / no-sao / no-sao-non-deblock / rd=4 / no-early-skip / rskip / no-fast-intra / no-tskip-fast / no-cu-lossless / b-intra / no-splitrd-skip / rdpenalty=1 / psy-rd=0.00 / psy-rdoq=5.00 / no-rd-refine / no-lossless / cbqpoffs=-2 / crqpoffs=-2 / rc=crf / crf=18.0 / qcomp=0.70 / qpstep=4 / stats-write=0 / stats-read=0 / ipratio=1.40 / pbratio=1.30 / aq-mode=2 / aq-strength=0.80 / cutree / zone-count=0 / no-strict-cbr / qg-size=16 / no-rc-grain / qpmax=69 / qpmin=0 / no-const-vbv / sar=0 / overscan=0 / videoformat=5 / range=0 / colorprim=1 / transfer=2 / colormatrix=2 / chromaloc=0 / display-window=0 / max-cll=0,0 / min-luma=0 / max-luma=1023 / log2-max-poc-lsb=8 / vui-timing-info / vui-hrd-info / slices=1 / no-opt-qp-pps / no-opt-ref-list-length-pps / no-multi-pass-opt-rps / scenecut-bias=0.05 / no-opt-cu-delta-qp / no-aq-motion / no-hdr / no-hdr-opt / no-dhdr10-opt / analysis-reuse-level=5 / scale-factor=0 / refine-intra=0 / refine-inter=0 / refine-mv=0 / no-limit-sao / ctu-info=0 / no-lowpass-dct / refine-mv-type=0 / copy-pic=1
  33. Language                                 : Chinese
  34. Default                                  : Yes
  35. Forced                                   : No
  36. Color range                              : Limited
  37. Color primaries                          : BT.709
  38. Audio
  39. ID                                       : 1
  40. Format                                   : AC-3
  41. Format/Info                              : Audio Coding 3
  42. Commercial name                          : Dolby Digital
  43. Codec ID                                 : A_AC3
  44. Duration                                 : 2 h 1 min
  45. Bit rate mode                            : Constant
  46. Bit rate                                 : 448 kb/s
  47. Channel(s)                               : 2 channels
  48. Channel layout                           : L R
  49. Sampling rate                            : 48.0 kHz
  50. Frame rate                               : 31.250 FPS (1536 SPF)
  51. Compression mode                         : Lossy
  52. Stream size                              : 389 MiB (7%)
  53. Language                                 : Chinese
  54. Service kind                             : Complete Main
  55. Default                                  : Yes
  56. Forced                                   : No
  57. Text #1
  58. ID                                       : 2
  59. Format                                   : PGS
  60. Muxing mode                              : zlib
  61. Codec ID                                 : S_HDMV/PGS
  62. Codec ID/Info                            : Picture based subtitle format used on BDs/HD-DVDs
  63. Duration                                 : 1 h 58 min
  64. Bit rate                                 : 31.3 kb/s
  65. Count of elements                        : 2252
  66. Stream size                              : 26.4 MiB (0%)
  67. Title                                    : 繁体
  68. Language                                 : Chinese
  69. Default                                  : Yes
  70. Forced                                   : No
  71. Text #2
  72. ID                                       : 3
  73. Format                                   : PGS
  74. Muxing mode                              : zlib
  75. Codec ID                                 : S_HDMV/PGS
  76. Codec ID/Info                            : Picture based subtitle format used on BDs/HD-DVDs
  77. Duration                                 : 1 h 58 min
  78. Bit rate                                 : 36.4 kb/s
  79. Count of elements                        : 2252
  80. Stream size                              : 30.8 MiB (1%)
  81. Title                                    : 英文
  82. Language                                 : English
  83. Default                                  : No
  84. Forced                                   : No
  85. Menu
  86. 00:00:00.000                             : en:Chapter 01
  87. 00:30:07.458                             : en:Chapter 02
  88. 00:45:55.833                             : en:Chapter 03
  89. 01:01:22.375                             : en:Chapter 04
  90. 01:14:11.625                             : en:Chapter 05
  91. 01:30:19.000                             : en:Chapter 06





此处一般会放置磁力链或种子下载链接,不过此链接需要注册会员才能看到,点击“立即注册”
磁力链下载【下载链接仅对注册会员开放,登陆后可见】
BT9527电影天堂 1、BT9527电影天堂提供的BT文件均来源于互联网抓取,只供网友学习交流、技术提升使用。
2、我们遵守BitTorrent点对点协议原则,任何版权问题请联系原资源发布商,我们不处理任何版权纠纷,谢谢!如有争议请联系邮箱:BT9527#hotmail.com(#换成@)
3、如果您发现某页面或地址有错误,请联系站长邮箱BT9527#hotmail.com(#换成@),我们会尽快处理。您的热心是对BT9527电影天堂最大的支持。
4、本站建议去正规影院观看电影以支持电影行业发展。
最新回复 (0)

你可以在 登录 or 注册 后,对此帖发表评论!

返回
发新帖