#PTGF出租女友[国语配音/中文字幕].Part.Time.Girlfriend.2021.1080p.BluRay.DD5.1.x265-10bit-ENTHD 9.75GB

版主小s 10天前 83

✔资源类型:暂未分类   ✔电影年份:2020   ✔电影地区:香港   ✔电影分类:剧情

◎标  题 #PTGF出租女友
◎译  名 P.T.G.F
◎片  名 兼職女友
◎年  代 2020
◎产  地 中国香港
◎类  别 剧情
◎语  言 粤语
◎上映日期 2021-09-22(中国香港)
◎IMDb评分 4.4/10 (54人评价)
◎IMDb链接 https://www.imdb.com/title/tt15575332/
◎豆瓣评分 5.1/10 (1151人评价)
◎豆瓣链接 https://movie.douban.com/subject/30217450/
◎演  员 赵善恒 Sin-Hang Chiu
       邓月平 Larine Tang
       岑珈其 Kaki Sham
       郭奕芯 Ashina Kwok
       张沛乐 Charlotte Cheung
       马俊怡 rose ma

◎简  介
  電影改編自真人真事的網絡小說。三千多張PTGF相片一夜被爆出,哄動全城,一眾受牽連少女無所遁形。然而引爆這一場風暴的卻只是一名普通的白領。                                    
                                他叫王家俊,一年前的他仍走不出被初戀欺騙的打擊。一次朋友聚會,相貌平庸的阿良帶來高質素的女友,親密行為羨煞旁人。無意中卻被家俊發現少女只是阿良用錢租來的女友,一倣湫碌脑~彙:PTGF,再次打通家俊對愛情的渴求。                                    
                                家俊偷偷透過IG尋找約會對象,卻接二連三遇上騙局。屢敗屢戰的他漸漸悟出真髓,短短數月,他成功約會百多名少女,搖身變成萬人景仰的PTGF達人,自稱『考試一百分』。                                    
                                家俊發現心儀的女學生芷純也是PTGF,既驚且喜。二人終發展成真實情侶,他們將如何面對種種的生活不協調?赤裸裸的手機世界又將如何把家俊逼到爆相的地步?得罪了那麼多人,家俊又該如何面對?
  1. ##### MediaInfo ######
  2. General
  3. Unique ID                                : 166260966010763009076041689411886385062 (0x7D14B28267190F54E7869CAC8AB207A6)
  4. Complete name                            : Part.Time.Girlfriend.2021.1080p.BluRay.DD5.1.x265-10bit-ENTHD.mkv
  5. Format                                   : Matroska
  6. Format version                           : Version 4
  7. File size                                : 9.74 GiB
  8. Duration                                 : 1 h 48 min
  9. Overall bit rate mode                    : Variable
  10. Overall bit rate                         : 12.8 Mb/s
  11. Movie name                               : Part Time Girlfriend 2021 1080p BluRay DD5.1 x265-10bit-HDS
  12. Encoded date                             : UTC 2022-06-23 00:21:04
  13. Writing application                      : mkvmerge v67.0.0 ('Under Stars') 64-bit
  14. Writing library                          : libebml v1.4.2 + libmatroska v1.6.4
  15. Video
  16. ID                                       : 1
  17. Format                                   : HEVC
  18. Format/Info                              : High Efficiency Video Coding
  19. Format profile                           : Main 10@L5.1@High
  20. Codec ID                                 : V_MPEGH/ISO/HEVC
  21. Duration                                 : 1 h 48 min
  22. Bit rate                                 : 9 862 kb/s
  23. Width                                    : 1 920 pixels
  24. Height                                   : 1 036 pixels
  25. Display aspect ratio                     : 1.85:1
  26. Frame rate mode                          : Constant
  27. Frame rate                               : 24.000 FPS
  28. Color space                              : YUV
  29. Chroma subsampling                       : 4:2:0
  30. Bit depth                                : 10 bits
  31. Bits/(Pixel*Frame)                       : 0.207
  32. Stream size                              : 7.50 GiB (77%)
  33. Title                                    : 735674307@HDSky
  34. Writing library                          : x265 - H.265/HEVC codec
  35. Default                                  : Yes
  36. Forced                                   : No
  37. Audio
  38. ID                                       : 2
  39. Format                                   : MLP FBA
  40. Format/Info                              : Meridian Lossless Packing FBA
  41. Commercial name                          : Dolby TrueHD
  42. Codec ID                                 : A_TRUEHD
  43. Duration                                 : 1 h 48 min
  44. Bit rate mode                            : Variable
  45. Bit rate                                 : 2 860 kb/s
  46. Maximum bit rate                         : 4 512 kb/s
  47. Channel(s)                               : 6 channels
  48. Channel layout                           : L R C LFE Ls Rs
  49. Sampling rate                            : 96.0 kHz
  50. Frame rate                               : 1 200.000 FPS (80 SPF)
  51. Compression mode                         : Lossless
  52. Stream size                              : 2.18 GiB (22%)
  53. Title                                    : English
  54. Language                                 : English
  55. Default                                  : Yes
  56. Forced                                   : No
  57. Text
  58. ID                                       : 3
  59. Format                                   : PGS
  60. Muxing mode                              : zlib
  61. Codec ID                                 : S_HDMV/PGS
  62. Codec ID/Info                            : Picture based subtitle format used on BDs/HD-DVDs
  63. Duration                                 : 1 h 48 min
  64. Bit rate                                 : 40.9 kb/s
  65. Count of elements                        : 3196
  66. Stream size                              : 31.7 MiB (0%)
  67. Title                                    : CHS
  68. Language                                 : Chinese
  69. Default                                  : Yes
  70. Forced                                   : No
  71. Menu
  72. 00:00:00.000                             : en:第 01 章
  73. 00:06:51.083                             : en:第 02 章
  74. 00:18:58.208                             : en:第 03 章
  75. 00:28:35.333                             : en:第 04 章
  76. 00:36:15.500                             : en:第 05 章
  77. 00:45:59.917                             : en:第 06 章
  78. 00:54:23.667                             : en:第 07 章
  79. 01:04:23.833                             : en:第 08 章
  80. 01:13:29.000                             : en:第 09 章
  81. 01:20:56.250                             : en:第 10 章
  82. 01:31:29.833                             : en:第 11 章
  83. 01:39:09.458                             : en:第 12 章





此处一般会放置磁力链或种子下载链接,不过此链接需要注册会员才能看到,点击“立即注册”
磁力链下载【下载链接仅对注册会员开放,登陆后可见】
BT9527电影天堂 1、BT9527电影天堂提供的BT文件均来源于互联网抓取,只供网友学习交流、技术提升使用。
2、我们遵守BitTorrent点对点协议原则,任何版权问题请联系原资源发布商,我们不处理任何版权纠纷,谢谢!如有争议请联系邮箱:BT9527#hotmail.com(#换成@)
3、如果您发现某页面或地址有错误,请联系站长邮箱BT9527#hotmail.com(#换成@),我们会尽快处理。您的热心是对BT9527电影天堂最大的支持。
4、本站建议去正规影院观看电影以支持电影行业发展。
最新回复 (0)

你可以在 登录 or 注册 后,对此帖发表评论!

返回
发新帖