志明与春娇[国粤多音轨/简繁英字幕].Love.In.A.Puff.2010.BluRay.1080p.x265.10bit.2Audios-MiniHD 3.96GB

版主小s 4天前 25

✔资源类型:暂未分类   ✔电影年份:2010   ✔电影地区:香港   ✔电影分类:剧情

◎标  题 志明与春娇
◎译  名 谈恋爱 / Love in a Puff
◎片  名 志明與春嬌
◎年  代 2010
◎产  地 中国香港
◎类  别 剧情 / 喜剧 / 爱情
◎语  言 粤语
◎上映日期 2010-06-18(中国大陆) / 2010-03-25(中国香港)
◎IMDb评分 7.2/10 (2494人评价)
◎IMDb链接 https://www.imdb.com/title/tt1602479/
◎豆瓣评分 7.9/10 (455562人评价)
◎豆瓣链接 https://movie.douban.com/subject/4305436/
◎片  长 104分钟(香港)
◎导  演 彭浩翔 Ho-Cheung Pang
◎编  剧 麦曦茵 Heiward Mak
       彭浩翔 Ho-Cheung Pang
◎演  员 杨千嬅 Miriam Yeung
       余文乐 Shawn Yue
       黄德斌 Tak-bun Wong
       陈逸宁 Yat Ning Chan
       谷祖琳 Jolane Koo
       司徒慧焯 Roy Szeto
       谷德昭 Vincent Kok
       张达明 Tat-Ming Cheung
       方皓玟 Charmaine Fong
       林兆霞 June Lam
       关逸基 Clifton Kwan
       林耀声 Yiu-Sing Lam
       缪非临 Fei-Lam Miu
       辛格·哈提汗·比托 Singh Hartihan Bitto
       陆诗韵 Sharon Luk
       徐天佑 Tien You Chui
       邹凯光 Matt Chow
       王宗尧 Gregory Wong
       朱慧敏 Queenie Chu
       刘伟恒 Wai-Hang Lau
       筱靖 Manecy Chen
       骆应钧 Ying Kwan Lok
       黄颖君 Burmie Wong

◎标  签 香港 / 爱情 / 文艺 / 都市 / 黑色幽默 / 喜剧 / 生活 / 2010

◎简  介
    一纸戒烟令让狭窄的后巷成为新型社交区域,无数抽数的男男女女不得不躲进那里抽烟。无论身居何位,所为何事,在那里他们都只是一个烟民,大家所做的无非是一起吞云吐雾、一起科插打诨。来自广告公司的志明(余文乐 饰)和在化妆品专柜工作的春娇(杨千嬅 饰)在那里相识,志明的不幸遭遇以及为春娇点烟的举动让春娇对这个斯文的男人略生好感。在接下来的几个日日夜夜,两人不时的传送短信和相约街角吸烟。感情通过拇指传送,爱情在烟雾之中滋生,最终一条暧昧的短信导致春娇和男友家豪(黄德斌 饰)分手。就当春娇准备全身心投入与志明的恋情时,志明的态度却变得含混不清。烟雾继续在街角后巷萦绕,但却不能弥合二人之间出现的隔阂。伴随着增加烟草税的决意颁发,广大烟民们开始搜寻和囤积香烟。在寻烟过程中,志明和春娇在他们第一次遇见的便利商店重逢,这晚,两人相约一起去找烟……                                    
                                  本片在五个星期15个拍摄日便完成拍摄,拍摄时间相当短。由于粗口写实镜头过火,《志明和春娇》在香港上映时被定为三级片。
  1. ##### MediaInfo ######
  2. General
  3. Unique ID                                : 158908211570407537161175799637124669193 (0x778C9BBA0613D391A5B17CB534F95F09)
  4. Complete name                            : Love.In.A.Puff.2010.BluRay.1080p.x265.10bit.2Audios-MiniHD.mkv
  5. Format                                   : Matroska
  6. Format version                           : Version 4
  7. File size                                : 3.95 GiB
  8. Duration                                 : 1 h 42 min
  9. Overall bit rate                         : 5 508 kb/s
  10. Encoded date                             : UTC 2018-01-16 16:05:31
  11. Writing application                      : mkvmerge v19.0.0 ('Brave Captain') 64-bit
  12. Writing library                          : libebml v1.3.5 + libmatroska v1.4.8
  13. Video
  14. ID                                       : 1
  15. Format                                   : HEVC
  16. Format/Info                              : High Efficiency Video Coding
  17. Format profile                           : Main 10@L4@High
  18. Codec ID                                 : V_MPEGH/ISO/HEVC
  19. Duration                                 : 1 h 42 min
  20. Bit rate                                 : 4 187 kb/s
  21. Width                                    : 1 920 pixels
  22. Height                                   : 818 pixels
  23. Display aspect ratio                     : 2.35:1
  24. Frame rate mode                          : Constant
  25. Frame rate                               : 24.000 FPS
  26. Color space                              : YUV
  27. Chroma subsampling                       : 4:2:0
  28. Bit depth                                : 10 bits
  29. Bits/(Pixel*Frame)                       : 0.111
  30. Stream size                              : 3.01 GiB (76%)
  31. Title                                    : video.hevc
  32. Default                                  : Yes
  33. Forced                                   : No
  34. Color range                              : Limited
  35. Color primaries                          : BT.709
  36. Audio #1
  37. ID                                       : 2
  38. Format                                   : AC-3
  39. Format/Info                              : Audio Coding 3
  40. Commercial name                          : Dolby Digital
  41. Codec ID                                 : A_AC3
  42. Duration                                 : 1 h 42 min
  43. Bit rate mode                            : Constant
  44. Bit rate                                 : 640 kb/s
  45. Channel(s)                               : 6 channels
  46. Channel layout                           : L R C LFE Ls Rs
  47. Sampling rate                            : 48.0 kHz
  48. Frame rate                               : 31.250 FPS (1536 SPF)
  49. Compression mode                         : Lossy
  50. Stream size                              : 471 MiB (12%)
  51. Title                                    : 粤语.ac3-5.1@640kbps
  52. Language                                 : Chinese
  53. Service kind                             : Complete Main
  54. Default                                  : Yes
  55. Forced                                   : No
  56. Audio #2
  57. ID                                       : 3
  58. Format                                   : AC-3
  59. Format/Info                              : Audio Coding 3
  60. Commercial name                          : Dolby Digital
  61. Codec ID                                 : A_AC3
  62. Duration                                 : 1 h 42 min
  63. Bit rate mode                            : Constant
  64. Bit rate                                 : 640 kb/s
  65. Channel(s)                               : 6 channels
  66. Channel layout                           : L R C LFE Ls Rs
  67. Sampling rate                            : 48.0 kHz
  68. Frame rate                               : 31.250 FPS (1536 SPF)
  69. Compression mode                         : Lossy
  70. Stream size                              : 471 MiB (12%)
  71. Title                                    : 国语.ac3-5.1@640kbps
  72. Language                                 : Chinese
  73. Service kind                             : Complete Main
  74. Default                                  : No
  75. Forced                                   : No
  76. Text #1
  77. ID                                       : 4
  78. Format                                   : UTF-8
  79. Codec ID                                 : S_TEXT/UTF8
  80. Codec ID/Info                            : UTF-8 Plain Text
  81. Duration                                 : 1 h 39 min
  82. Bit rate                                 : 81 b/s
  83. Count of elements                        : 1643
  84. Stream size                              : 59.7 KiB (0%)
  85. Title                                    : 简中.srt
  86. Language                                 : Chinese
  87. Default                                  : Yes
  88. Forced                                   : No
  89. Text #2
  90. ID                                       : 5
  91. Format                                   : UTF-8
  92. Codec ID                                 : S_TEXT/UTF8
  93. Codec ID/Info                            : UTF-8 Plain Text
  94. Duration                                 : 1 h 39 min
  95. Bit rate                                 : 81 b/s
  96. Count of elements                        : 1643
  97. Stream size                              : 59.7 KiB (0%)
  98. Title                                    : 繁中.srt
  99. Language                                 : Chinese
  100. Default                                  : No
  101. Forced                                   : No
  102. Text #3
  103. ID                                       : 6
  104. Format                                   : PGS
  105. Codec ID                                 : S_HDMV/PGS
  106. Codec ID/Info                            : Picture based subtitle format used on BDs/HD-DVDs
  107. Duration                                 : 1 h 41 min
  108. Bit rate                                 : 38.5 kb/s
  109. Count of elements                        : 3122
  110. Stream size                              : 28.1 MiB (1%)
  111. Title                                    : 英文.englsih.sup
  112. Language                                 : English
  113. Default                                  : No
  114. Forced                                   : No
  115. Menu
  116. 00:00:00.000                             : en:Chapter 01
  117. 00:05:35.042                             : en:Chapter 02
  118. 00:15:02.792                             : en:Chapter 03
  119. 00:17:28.333                             : en:Chapter 04
  120. 00:22:52.458                             : en:Chapter 05
  121. 00:25:31.583                             : en:Chapter 06
  122. 00:32:12.375                             : en:Chapter 07
  123. 00:38:37.250                             : en:Chapter 08
  124. 00:42:23.625                             : en:Chapter 09
  125. 00:48:35.208                             : en:Chapter 10
  126. 00:53:49.208                             : en:Chapter 11
  127. 01:01:51.458                             : en:Chapter 12
  128. 01:04:43.667                             : en:Chapter 13
  129. 01:08:35.833                             : en:Chapter 14
  130. 01:12:55.250                             : en:Chapter 15
  131. 01:19:31.208                             : en:Chapter 16
  132. 01:25:22.958                             : en:Chapter 17
  133. 01:29:37.042                             : en:Chapter 18
  134. 01:34:32.292                             : en:Chapter 19
  135. 01:38:22.958                             : en:Chapter 20
  136. 01:42:46.958                             : en:Chapter 21





此处一般会放置磁力链或种子下载链接,不过此链接需要注册会员才能看到,点击“立即注册”
磁力链下载【下载链接仅对注册会员开放,登陆后可见】
BT9527电影天堂 1、BT9527电影天堂提供的BT文件均来源于互联网抓取,只供网友学习交流、技术提升使用。
2、我们遵守BitTorrent点对点协议原则,任何版权问题请联系原资源发布商,我们不处理任何版权纠纷,谢谢!如有争议请联系邮箱:BT9527#hotmail.com(#换成@)
3、如果您发现某页面或地址有错误,请联系站长邮箱BT9527#hotmail.com(#换成@),我们会尽快处理。您的热心是对BT9527电影天堂最大的支持。
4、本站建议去正规影院观看电影以支持电影行业发展。
最新回复 (0)

你可以在 登录 or 注册 后,对此帖发表评论!

返回
发新帖