影子神鞭[国语音轨/简繁英字幕].The.Shadow.Whip.1971.BluRay.1080p.x265.10bit-MiniHD 1.98GB

版主小s 10天前 38

✔资源类型:暂未分类   ✔电影年份:更 早   ✔电影地区:香港   ✔电影分类:动作

◎标  题 影子神鞭
◎译  名 The Shadow Whip
◎年  代 1971
◎产  地 中国香港
◎类  别 动作 / 武侠 / 古装
◎语  言 汉语普通话
◎上映日期 1971-08-06
◎IMDb评分 6.5/10 (281人评价)
◎IMDb链接 https://www.imdb.com/title/tt0068004/
◎豆瓣评分 6.1/10 (381人评价)
◎豆瓣链接 https://movie.douban.com/subject/1295716/
◎片  长 78分钟
◎导  演 罗维 Wei Lo
◎编  剧 倪匡 Kuang Ni
       罗维 Wei Lo
◎演  员 岳华 Hua Yueh
       谷峰 Feng Ku
       田丰 Feng Tien
       郑佩佩 Pei-pei Cheng
       罗维 Wei Lo
       岑潜波 Chien-Po Tsen
       金天柱 Tien-Chu Chin
       李昆 Kun Li
       曾楚霖 Choh-Lam Tsang
       郝履仁 Li Jen Ho
       邵逸夫 Run Run Shaw
       周福良 Fu Liang Chou
       伍灼华 Cho Hua Wu
       姜兴隆 Hsing-lung Chiang
       陈景森 Ching-Shen Chen
       王永华 Yung-Hua Wang
       徐二牛 Simon Chui Yee-Ang

◎标  签 邵氏 / 香港 / 郑佩佩 / 武侠 / 香港电影 / 罗维 / 岳华 / 谷峰

◎简  介
  剧情简介:                                       
                                    杨寒云和伯父在关外以开客栈为生,并从伯父那里继承了一身好武功。一日她来到小镇上采购货品,遇到素有“连环三杰”称号的武林高手挑衅,幸好一名叫王剑心的年轻人出手相助。此刻杨寒云忽然发现小镇上聚集了许多武林高手,他们在寻找一个和杨开云同样以鞭子为武器的人――影子神鞭方承天。                                       
                                    江湖盛传15年前方承天劫走镖局大批价值连城的珠宝,致使当时负责保镖的杨总镖头家破人亡,如今各高手仍在寻找方承天的下落,他们要杀死方承天夺回珠宝。                                       
                                    杨寒云回到客栈,遇到来此寻找方承天的洪大鹏,此人曾和方承天是拜把兄弟,如今却是江湖上寻找方承天的领头人。杨寒云的伯父出面与方承天对决,此刻杨寒云才得知伯父就是江湖中人寻找了15年的方承天。                                       
                                    方承天命杨寒云先行回到小镇,她找到王剑心,两人互生情愫。王剑心告诉杨开云,自己实为杨总镖头的外甥,尽管他对杨开云一见钟情,但却没有忘记为舅父报...
  1. ##### MediaInfo ######
  2. General
  3. Unique ID                                : 74383447184326612503683952133868338428 (0x37F5BB17AB2911A8EEAC07DB3093BCFC)
  4. Complete name                            : The.Shadow.Whip.1971.BluRay.1080p.x265.10bit-MiniHD.mkv
  5. Format                                   : Matroska
  6. Format version                           : Version 4
  7. File size                                : 1.98 GiB
  8. Duration                                 : 1 h 16 min
  9. Overall bit rate                         : 3 733 kb/s
  10. Encoded date                             : UTC 2018-03-20 02:36:49
  11. Writing application                      : mkvmerge v20.0.0 ('I Am The Sun') 64-bit
  12. Writing library                          : libebml v1.3.5 + libmatroska v1.4.8
  13. Video
  14. ID                                       : 1
  15. Format                                   : HEVC
  16. Format/Info                              : High Efficiency Video Coding
  17. Format profile                           : Main 10@L4@Main
  18. Codec ID                                 : V_MPEGH/ISO/HEVC
  19. Duration                                 : 1 h 16 min
  20. Bit rate                                 : 3 211 kb/s
  21. Width                                    : 1 920 pixels
  22. Height                                   : 816 pixels
  23. Display aspect ratio                     : 2.35:1
  24. Frame rate mode                          : Constant
  25. Frame rate                               : 25.000 FPS
  26. Color space                              : YUV
  27. Chroma subsampling                       : 4:2:0
  28. Bit depth                                : 10 bits
  29. Bits/(Pixel*Frame)                       : 0.082
  30. Stream size                              : 1.71 GiB (86%)
  31. Writing library                          : x265 2.7+1-2aa737a99f51:[Windows][GCC 7.3.0][64 bit] 10bit
  32. Encoding settings                        : cpuid=533541173503 / frame-threads=3 / numa-pools=8 / wpp / no-pmode / no-pme / no-psnr / no-ssim / log-level=2 / csv / csv-log-level=0 / input-csp=1 / input-res=1920x816 / interlace=0 / total-frames=114105 / level-idc=0 / high-tier=1 / uhd-bd=0 / ref=5 / no-allow-non-conformance / no-repeat-headers / annexb / no-aud / no-hrd / info / hash=0 / no-temporal-layers / no-open-gop / min-keyint=1 / keyint=360 / gop-lookahead=0 / bframes=9 / b-adapt=2 / b-pyramid / bframe-bias=0 / rc-lookahead=60 / lookahead-slices=4 / NTMzNTQ=uuDQuD2mJt9fsCf / scenecut=40 / radl=0 / no-intra-refresh / ctu=32 / min-cu-size=8 / rect / no-amp / max-tu-size=16 / tu-inter-depth=2 / tu-intra-depth=2 / limit-tu=4 / rdoq-level=1 / dynamic-rd=0.00 / ssim-rd / signhide / no-tskip / nr-intra=0 / nr-inter=0 / no-constrained-intra / no-strong-intra-smoothing / max-merge=3 / limit-refs=2 / limit-modes / me=3 / subme=5 / merange=25 / temporal-mvp / weightp / weightb / no-analyze-src-pics / deblock=-1:-1 / no-sao / no-sao-non-deblock / rd=4 / no-early-skip / rskip / no-fast-intra / no-tskip-fast / no-cu-lossless / b-intra / no-splitrd-skip / rdpenalty=1 / psy-rd=0.00 / psy-rdoq=5.00 / no-rd-refine / no-lossless / cbqpoffs=-2 / crqpoffs=-2 / rc=crf / crf=19.0 / qcomp=0.70 / qpstep=4 / stats-write=0 / stats-read=0 / ipratio=1.40 / pbratio=1.30 / aq-mode=1 / aq-strength=0.80 / cutree / zone-count=0 / no-strict-cbr / qg-size=16 / no-rc-grain / qpmax=69 / qpmin=0 / no-const-vbv / sar=0 / overscan=0 / videoformat=5 / range=0 / colorprim=1 / transfer=2 / colormatrix=2 / chromaloc=0 / display-window=0 / max-cll=0,0 / min-luma=0 / max-luma=1023 / log2-max-poc-lsb=8 / vui-timing-info / vui-hrd-info / slices=1 / no-opt-qp-pps / no-opt-ref-list-length-pps / no-multi-pass-opt-rps / scenecut-bias=0.05 / no-opt-cu-delta-qp / no-aq-motion / no-hdr / no-hdr-opt / no-dhdr10-opt / analysis-reuse-level=5 / scale-factor=0 / refine-intra=0 / refine-inter=0 / refine-mv=0 / no-limit-sao / ctu-info=0 / no-lowpass-dct / refine-mv-type=0 / copy-pic=1
  33. Language                                 : Chinese
  34. Default                                  : Yes
  35. Forced                                   : No
  36. Color range                              : Limited
  37. Color primaries                          : BT.709
  38. Audio
  39. ID                                       : 2
  40. Format                                   : AC-3
  41. Format/Info                              : Audio Coding 3
  42. Commercial name                          : Dolby Digital
  43. Codec ID                                 : A_AC3
  44. Duration                                 : 1 h 16 min
  45. Bit rate mode                            : Constant
  46. Bit rate                                 : 448 kb/s
  47. Channel(s)                               : 2 channels
  48. Channel layout                           : L R
  49. Sampling rate                            : 48.0 kHz
  50. Frame rate                               : 31.250 FPS (1536 SPF)
  51. Compression mode                         : Lossy
  52. Stream size                              : 244 MiB (12%)
  53. Title                                    : 国语
  54. Language                                 : Chinese
  55. Service kind                             : Complete Main
  56. Default                                  : Yes
  57. Forced                                   : No
  58. Text #1
  59. ID                                       : 3
  60. Format                                   : PGS
  61. Muxing mode                              : zlib
  62. Codec ID                                 : S_HDMV/PGS
  63. Codec ID/Info                            : Picture based subtitle format used on BDs/HD-DVDs
  64. Title                                    : 繁体
  65. Language                                 : Chinese
  66. Default                                  : Yes
  67. Forced                                   : No
  68. Text #2
  69. ID                                       : 4
  70. Format                                   : PGS
  71. Muxing mode                              : zlib
  72. Codec ID                                 : S_HDMV/PGS
  73. Codec ID/Info                            : Picture based subtitle format used on BDs/HD-DVDs
  74. Title                                    : 简体
  75. Language                                 : Chinese
  76. Default                                  : No
  77. Forced                                   : No
  78. Text #3
  79. ID                                       : 5
  80. Format                                   : PGS
  81. Muxing mode                              : zlib
  82. Codec ID                                 : S_HDMV/PGS
  83. Codec ID/Info                            : Picture based subtitle format used on BDs/HD-DVDs
  84. Title                                    : 英文
  85. Language                                 : English
  86. Default                                  : No
  87. Forced                                   : No
  88. Menu
  89. 00:00:00.000                             : en:Chapter 01
  90. 00:07:44.559                             : en:Chapter 02
  91. 00:16:48.280                             : en:Chapter 03
  92. 00:26:05.960                             : en:Chapter 04
  93. 00:39:13.920                             : en:Chapter 05
  94. 00:49:16.800                             : en:Chapter 06
  95. 00:58:27.560                             : en:Chapter 07
  96. 01:08:34.439                             : en:Chapter 08





此处一般会放置磁力链或种子下载链接,不过此链接需要注册会员才能看到,点击“立即注册”
磁力链下载【下载链接仅对注册会员开放,登陆后可见】
BT9527电影天堂 1、BT9527电影天堂提供的BT文件均来源于互联网抓取,只供网友学习交流、技术提升使用。
2、我们遵守BitTorrent点对点协议原则,任何版权问题请联系原资源发布商,我们不处理任何版权纠纷,谢谢!如有争议请联系邮箱:BT9527#hotmail.com(#换成@)
3、如果您发现某页面或地址有错误,请联系站长邮箱BT9527#hotmail.com(#换成@),我们会尽快处理。您的热心是对BT9527电影天堂最大的支持。
4、本站建议去正规影院观看电影以支持电影行业发展。
最新回复 (0)

你可以在 登录 or 注册 后,对此帖发表评论!

返回
发新帖