李小龙我的兄弟[国粤多音轨/简繁英字幕].Bruce.Lee.My.Brother.2010.BluRay.1080p.x265.10bit.2Audio-MiniHD 4.58GB

版主小s 3月前 127

✔资源类型:暂未分类   ✔电影年份:2010   ✔电影地区:大陆   ✔电影分类:剧情

◎标  题 李小龙我的兄弟
◎译  名 李小龙 / 少年李小龙 / 李小龙,我的兄弟 / My Brothers Bruce Lee
◎年  代 2010
◎产  地 中国大陆 / 中国香港
◎类  别 剧情 / 动作 / 爱情 / 传记
◎语  言 汉语普通话 / 粤语
◎上映日期 2010-11-25
◎IMDb评分 6.4/10 (1885人评价)
◎IMDb链接 https://www.imdb.com/title/tt1482989/
◎豆瓣评分 6.3/10 (7964人评价)
◎豆瓣链接 https://movie.douban.com/subject/4915135/
◎片  长 129分钟
◎导  演 文隽 Manfred Wong
       叶伟民 Raymond Yip Wai-Man
◎编  剧 文隽 Manfred Wong
       刘浩良 Ho Leung Lau
◎演  员 李治廷 Aarif Lee
       梁家辉 Tony Leung
       钟丽缇 Christy Chung
       谢婷婷 Jennifer Tse
       欧阳靖 Jin Auyeung
       张一山 Yishan Zhang
       贡米 Mi Gong
       叶璇 Michelle Ye
       刘浩龙 Wilfred Lau
       孙德林 Dylan Sterling
       张兆辉 Siu-Fai Cheung
       万梓良 Alex Man
       杨恭如 Kristy Yang
       钱嘉乐 Kar Lok Chin
       张达明 Tat-Ming Cheung
       陈奂仁 Hanjin Tan
       李阳 Li Yang
       梁容 Rong Liang
       彭根 Gen Peng
       李香琴 Heung Kam Lee
       阮德锵 Johnson Yuen
       聂安达 Anders Nelson
       余安安 On-on Yu
       郑丹瑞 Lawrence Cheng
       邝文伟 Abe Kwong
       梁焯满 Sammuel Leung
       黄志伟 Chi Wai Wong
       宋佳 Jia Song
       张午郎 John Cheung
       应昌佑 Charles Ying
       高君雨 Junyu Gao
       馮鳳珍 Rita Fung
       杨振宇 Zhenyu Yang
       张世宏 Silver Cheung
       李健威 Kin-wai Lee
       黄国雄 Samuel Wong
       庄澄 John Chong
       阿十·戈里 Ash Gordey

◎标  签 李小龙 / 香港电影 / 香港 / 李治廷 / 动作 / 梁家辉 / 2010 / 叶伟民

◎简  介
  <a href="https://www.douban.com/link2/?url=http%3A%2F%2Fsite.douban.com%2F108856%2F">http://site.douban.c<wbr/>om/108856/</a> 电影《李小龙》豆瓣小站                                       
                                    1940年11月27日,香港粤剧界名伶李海泉(梁家辉 饰)于旧金山演出,忽闻太太何爱榆(钟丽缇 饰)临盆。孩子降生,取名李振藩,英文名Bruce Lee。次年,全家返港,李母为婴孩取名细凤。日军侵占香港,全家受辱,细凤心生惩恶扬善之心。细凤(李治廷 饰)自幼调皮多动,经常惹出乱子,遭到父母严惩。邻家文女(贡米 饰)对他情有独钟,但他却并不在意。细凤出道很早,不久成了童星。因酷爱跳恰恰舞,他结识了英国来的朋友刘连光(张一山 饰),几人组成“龙城四虎”。某日,细凤偶遇曹达华爱女敏儿(谢婷婷 饰),心生情愫,但因刘连光约会敏儿,而将此事埋藏于心。某日,在糖水店,他与校际拳赛冠军洋人查理发生口角,实力不济,被打。他为报仇,拜叶问为师,学习咏春,准备再战。此时,敏儿却向他发出...
  1. ##### MediaInfo ######
  2. General
  3. Unique ID                                : 333411267623464918795788669091496571053 (0xFAD4ACA6369B27BB2BF924EC8147B0AD)
  4. Complete name                            : Bruce.Lee.My.Brother.2010.BluRay.1080p.x265.10bit.2Audio-MiniHD.mkv
  5. Format                                   : Matroska
  6. Format version                           : Version 4
  7. File size                                : 4.58 GiB
  8. Duration                                 : 2 h 9 min
  9. Overall bit rate                         : 5 059 kb/s
  10. Encoded date                             : UTC 2018-02-02 07:06:48
  11. Writing application                      : mkvmerge v20.0.0 ('I Am The Sun') 64-bit
  12. Writing library                          : libebml v1.3.5 + libmatroska v1.4.8
  13. Video
  14. ID                                       : 1
  15. Format                                   : HEVC
  16. Format/Info                              : High Efficiency Video Coding
  17. Format profile                           : Main 10@L4@Main
  18. Codec ID                                 : V_MPEGH/ISO/HEVC
  19. Duration                                 : 2 h 9 min
  20. Bit rate                                 : 3 738 kb/s
  21. Width                                    : 1 920 pixels
  22. Height                                   : 816 pixels
  23. Display aspect ratio                     : 2.35:1
  24. Frame rate mode                          : Constant
  25. Frame rate                               : 24.000 FPS
  26. Color space                              : YUV
  27. Chroma subsampling                       : 4:2:0
  28. Bit depth                                : 10 bits
  29. Bits/(Pixel*Frame)                       : 0.099
  30. Stream size                              : 3.38 GiB (74%)
  31. Writing library                          : x265 2.6+31-3712d13c09bf:[Windows][MSVC 1912][64 bit] 10bit
  32. Encoding settings                        : cpuid=533541173503 / frame-threads=3 / numa-pools=8 / wpp / no-pmode / no-pme / no-psnr / no-ssim / log-level=2 / csv / csv-log-level=0 / input-csp=1 / input-res=1920x816 / interlace=0 / total-frames=186691 / level-idc=0 / high-tier=1 / uhd-bd=0 / ref=5 / no-allow-non-conformance / no-repeat-headers / annexb / no-aud / no-hrd / info / hash=0 / no-temporal-layers / no-open-gop / min-keyint=1 / keyint=360 / gop-lookahead=0 / bframes=9 / b-adapt=2 / b-pyramid / bframe-bias=0 / rc-lookahead=60 / lookahead-slices=4 / NTMzNTQ=uuDQuD2mJt9fsCf / scenecut=40 / radl=0 / no-intra-refresh / ctu=32 / min-cu-size=8 / rect / no-amp / max-tu-size=16 / tu-inter-depth=2 / tu-intra-depth=2 / limit-tu=4 / rdoq-level=1 / dynamic-rd=0.00 / ssim-rd / signhide / no-tskip / nr-intra=0 / nr-inter=0 / no-constrained-intra / no-strong-intra-smoothing / max-merge=3 / limit-refs=2 / limit-modes / me=3 / subme=5 / merange=25 / temporal-mvp / weightp / weightb / no-analyze-src-pics / deblock=-1:-1 / no-sao / no-sao-non-deblock / rd=4 / no-early-skip / rskip / no-fast-intra / no-tskip-fast / no-cu-lossless / b-intra / no-splitrd-skip / rdpenalty=1 / psy-rd=0.00 / psy-rdoq=5.00 / no-rd-refine / no-lossless / cbqpoffs=-2 / crqpoffs=-2 / rc=crf / crf=19.0 / qcomp=0.70 / qpstep=4 / stats-write=0 / stats-read=0 / ipratio=1.40 / pbratio=1.30 / aq-mode=2 / aq-strength=0.80 / cutree / zone-count=0 / no-strict-cbr / qg-size=16 / no-rc-grain / qpmax=69 / qpmin=0 / no-const-vbv / sar=0 / overscan=0 / videoformat=5 / range=0 / colorprim=1 / transfer=2 / colormatrix=2 / chromaloc=0 / display-window=0 / max-cll=0,0 / min-luma=0 / max-luma=1023 / log2-max-poc-lsb=8 / vui-timing-info / vui-hrd-info / slices=1 / no-opt-qp-pps / no-opt-ref-list-length-pps / no-multi-pass-opt-rps / scenecut-bias=0.05 / no-opt-cu-delta-qp / no-aq-motion / no-hdr / no-hdr-opt / no-dhdr10-opt / analysis-reuse-level=5 / scale-factor=0 / refine-intra=0 / refine-inter=0 / refine-mv=0 / no-limit-sao / ctu-info=0 / no-lowpass-dct / refine-mv-type=0 / copy-pic=1
  33. Language                                 : Chinese
  34. Default                                  : Yes
  35. Forced                                   : No
  36. Color range                              : Limited
  37. Color primaries                          : BT.709
  38. Audio #1
  39. ID                                       : 2
  40. Format                                   : AC-3
  41. Format/Info                              : Audio Coding 3
  42. Commercial name                          : Dolby Digital
  43. Codec ID                                 : A_AC3
  44. Duration                                 : 2 h 9 min
  45. Bit rate mode                            : Constant
  46. Bit rate                                 : 640 kb/s
  47. Channel(s)                               : 6 channels
  48. Channel layout                           : L R C LFE Ls Rs
  49. Sampling rate                            : 48.0 kHz
  50. Frame rate                               : 31.250 FPS (1536 SPF)
  51. Compression mode                         : Lossy
  52. Stream size                              : 593 MiB (13%)
  53. Title                                    : 粤语
  54. Language                                 : Chinese
  55. Service kind                             : Complete Main
  56. Default                                  : Yes
  57. Forced                                   : No
  58. Audio #2
  59. ID                                       : 3
  60. Format                                   : AC-3
  61. Format/Info                              : Audio Coding 3
  62. Commercial name                          : Dolby Digital
  63. Codec ID                                 : A_AC3
  64. Duration                                 : 2 h 9 min
  65. Bit rate mode                            : Constant
  66. Bit rate                                 : 640 kb/s
  67. Channel(s)                               : 6 channels
  68. Channel layout                           : L R C LFE Ls Rs
  69. Sampling rate                            : 48.0 kHz
  70. Frame rate                               : 31.250 FPS (1536 SPF)
  71. Compression mode                         : Lossy
  72. Stream size                              : 593 MiB (13%)
  73. Title                                    : 国语
  74. Language                                 : Chinese
  75. Service kind                             : Complete Main
  76. Default                                  : No
  77. Forced                                   : No
  78. Text #1
  79. ID                                       : 4
  80. Format                                   : PGS
  81. Muxing mode                              : zlib
  82. Codec ID                                 : S_HDMV/PGS
  83. Codec ID/Info                            : Picture based subtitle format used on BDs/HD-DVDs
  84. Duration                                 : 2 h 1 min
  85. Bit rate                                 : 42.0 kb/s
  86. Count of elements                        : 3378
  87. Stream size                              : 36.6 MiB (1%)
  88. Title                                    : 繁体
  89. Language                                 : Chinese
  90. Default                                  : Yes
  91. Forced                                   : No
  92. Text #2
  93. ID                                       : 5
  94. Format                                   : PGS
  95. Muxing mode                              : zlib
  96. Codec ID                                 : S_HDMV/PGS
  97. Codec ID/Info                            : Picture based subtitle format used on BDs/HD-DVDs
  98. Duration                                 : 2 h 1 min
  99. Bit rate                                 : 37.6 kb/s
  100. Count of elements                        : 3378
  101. Stream size                              : 32.8 MiB (1%)
  102. Title                                    : 简体
  103. Language                                 : Chinese
  104. Default                                  : No
  105. Forced                                   : No
  106. Text #3
  107. ID                                       : 6
  108. Format                                   : PGS
  109. Muxing mode                              : zlib
  110. Codec ID                                 : S_HDMV/PGS
  111. Codec ID/Info                            : Picture based subtitle format used on BDs/HD-DVDs
  112. Duration                                 : 2 h 1 min
  113. Bit rate                                 : 34.0 kb/s
  114. Count of elements                        : 3378
  115. Stream size                              : 29.7 MiB (1%)
  116. Title                                    : 英文
  117. Language                                 : English
  118. Default                                  : No
  119. Forced                                   : No





此处一般会放置磁力链或种子下载链接,不过此链接需要注册会员才能看到,点击“立即注册”
磁力链下载【下载链接仅对注册会员开放,登陆后可见】
BT9527电影天堂 1、BT9527电影天堂提供的BT文件均来源于互联网抓取,只供网友学习交流、技术提升使用。
2、我们遵守BitTorrent点对点协议原则,任何版权问题请联系原资源发布商,我们不处理任何版权纠纷,谢谢!如有争议请联系邮箱:BT9527#hotmail.com(#换成@)
3、如果您发现某页面或地址有错误,请联系站长邮箱BT9527#hotmail.com(#换成@),我们会尽快处理。您的热心是对BT9527电影天堂最大的支持。
4、本站建议去正规影院观看电影以支持电影行业发展。
最新回复 (0)

你可以在 登录 or 注册 后,对此帖发表评论!

返回
发新帖