新警察故事[国粤多音轨/简繁英字幕].New.Police.Story.2004.BluRay.1080p.x265.10bit.2Audio-MiniHD 4.88GB

版主小s 3月前 118

✔资源类型:暂未分类   ✔电影年份:更 早   ✔电影地区:大陆   ✔电影分类:剧情

◎标  题 新警察故事
◎译  名 New Police Story
◎年  代 2004
◎产  地 中国大陆 / 中国香港
◎类  别 剧情 / 动作 / 惊悚 / 犯罪
◎语  言 英语 / 汉语普通话 / 粤语
◎上映日期 2004-09-24(中国大陆)
◎IMDb评分 7/10 (26295人评价)
◎IMDb链接 https://www.imdb.com/title/tt0386005/
◎豆瓣评分 7.7/10 (280782人评价)
◎豆瓣链接 https://movie.douban.com/subject/1306160/
◎片  长 123分钟
◎导  演 陈木胜 Benny Chan
◎编  剧 袁锦麟 Alan Yuen
◎演  员 成龙 Jackie Chan
       谢霆锋 Nicholas Tse
       杨采妮 Charlie Yeung
       蔡卓妍 Charlene Choi
       吴彦祖 Daniel Wu
       安志杰 Andy On
       尹子维 Terence Yin
       王杰 Dave Wong
       于荣光 Ringo Yu
       叶山豪 Hayama Go
       蒋怡 Coco Chiang
       伍允龙 Philip Ng
       孙淳 Chun Sun
       火星 Mars
       麦长青 Cheung-Ching Mak
       吴浩康 Deep Ng
       李天翔 Eric Li Tin Cheung
       文诗琪 Yoki Man
       叶运强 Wan-Keung Yip
       陈桂芬 Brenda Chan
       庄欣玲 Chong Yan-Ling
       谭王鸿 Wing Hung Tam
       何伟业 Wai-Yip Ho
       洪天明 Timmy Hung Tin-Ming
       刘以达 Tats Lau
       高皓正 Zac Koo
       张致恒 Steven Cheung
       梁敏仪 Winnie Leung
       卢惠光 Ken Lo
       关智斌 Kenny Kwan
       伍佰 Wu Bai
       樋口明日嘉 Asuka Higuchi
       蒋雅文 Mandy Chiang
       Hyun Jin Park Hyun Jin Park
       何华超 Tony Ho
       伍刚 Gang Wu
       吕有慧 Yau-wai Lui
       岑建勋 John Sham
       廖启智 Kai Chi Liu
       黄德斌 Tak-bun Wong
       吴嘉龙 Carl Wu
       彭敬慈 Samuel Pang
       连凯 Andrew Lin
       董韵诗 Barbie Tung
       苏志鸿 Solon So
       杨受成 Albert Yeung
       陈自强 Willie Chan
       陈木胜 Benny Chan
       成龙 Jackie Chan
       韦启良 Yee-Leung Wai
       潘耀明 Anthony Pun
       邱志伟 Chi Wai Yau
       黄锐民 Oliver Wong
       王晶晶 Wong Ching Ching
       赵崇邦 Sung Pong Choo
       黄国雄 Samuel Wong
       黄宏显 Eddy Wong
       温皓 Hao Wen
       黄宏达 Victor Wong
       何志辉 Brian Ho
       李忠志 Chung Chi Li
       曾景祥 Kinson Tsang
       吴慧冰 Louisa Ng

◎标  签 香港 / 动作 / 警匪 / 犯罪 / 经典 / 2004 / 剧情 / 人性

◎简  介
  陈国荣(成龙 饰)的所在那一组警察是警队精英,破案无数。阿祖(吴彦祖 饰)是总警师的儿子,却勾结了几个高官子弟( 蒋怡丶尹子维丶安志杰丶叶山豪)挑战警方。他们到银行抢劫,警钟敲响警察赶到时,就把阿荣及队员带进了一个早已设计好的空旷仓库里。警员都陷进了匪徒早已设计好的游戏程序里,残忍的被杀害,连阿荣女朋友可颐 (杨采妮 饰)的弟弟也被无法幸免。阿荣就此被停职,出于内疚也跟可颐分手了。 终日喝得烂醉的阿荣在酒吧遇到了阿锋(谢霆锋 饰),阿锋为了使阿荣振作起来,决定假扮警察告诉阿荣自己是上司派来要求得到阿荣协助翻案的新警员。 阿荣又遇到那群狠狠打击他的罪犯,与他们斗志斗勇,在警花莎莎(蔡卓妍 饰)的协助下知道匪徒当年的事件被编成了一部游戏,同时也知道了当年为何情报被泄漏的原因。
  1. ##### MediaInfo ######
  2. General
  3. Unique ID                                : 302447277191422108036075584466653422321 (0xE3893A0DDEA3E51B928A0F5F38FA22F1)
  4. Complete name                            : New.Police.Story.2004.BluRay.1080p.x265.10bit.2Audio-MiniHD.mkv
  5. Format                                   : Matroska
  6. Format version                           : Version 4
  7. File size                                : 4.88 GiB
  8. Duration                                 : 2 h 3 min
  9. Overall bit rate                         : 5 670 kb/s
  10. Encoded date                             : UTC 2018-01-31 19:46:05
  11. Writing application                      : mkvmerge v20.0.0 ('I Am The Sun') 64-bit
  12. Writing library                          : libebml v1.3.5 + libmatroska v1.4.8
  13. Video
  14. ID                                       : 1
  15. Format                                   : HEVC
  16. Format/Info                              : High Efficiency Video Coding
  17. Format profile                           : Main 10@L4@Main
  18. Codec ID                                 : V_MPEGH/ISO/HEVC
  19. Duration                                 : 2 h 3 min
  20. Bit rate                                 : 4 619 kb/s
  21. Width                                    : 1 920 pixels
  22. Height                                   : 828 pixels
  23. Display aspect ratio                     : 2.35:1
  24. Frame rate mode                          : Constant
  25. Frame rate                               : 23.976 (24000/1001/53354) FPS
  26. Color space                              : YUV
  27. Chroma subsampling                       : 4:2:0
  28. Bit depth                                : 10 bits
  29. Bits/(Pixel*Frame)                       : 0.121
  30. Stream size                              : 3.98 GiB (81%)
  31. Writing library                          : x265 2.6+31-3712d13c09bf:[Windows][MSVC 1912][64 bit] 10bit
  32. Encoding settings                        : cpuid=533541173503 / frame-threads=3 / numa-pools=8 / wpp / no-pmode / no-pme / no-psnr / no-ssim / log-level=2 / csv / csv-log-level=0 / input-csp=1 / input-res=1920x828 / interlace=0 / total-frames=177361 / level-idc=0 / high-tier=1 / uhd-bd=0 / ref=5 / no-allow-non-conformance / no-repeat-headers / annexb / no-aud / no-hrd / info / hash=0 / no-temporal-layers / no-open-gop / min-keyint=1 / keyint=360 / gop-lookahead=0 / bframes=9 / b-adapt=2 / b-pyramid / bframe-bias=0 / rc-lookahead=60 / lookahead-slices=4 / NTMzNTQ=uuDQuD2mJt9fsCf / scenecut=40 / radl=0 / no-intra-refresh / ctu=32 / min-cu-size=8 / rect / no-amp / max-tu-size=16 / tu-inter-depth=2 / tu-intra-depth=2 / limit-tu=4 / rdoq-level=1 / dynamic-rd=0.00 / ssim-rd / signhide / no-tskip / nr-intra=0 / nr-inter=0 / no-constrained-intra / no-strong-intra-smoothing / max-merge=3 / limit-refs=2 / limit-modes / me=3 / subme=5 / merange=25 / temporal-mvp / weightp / weightb / no-analyze-src-pics / deblock=-1:-1 / no-sao / no-sao-non-deblock / rd=4 / no-early-skip / rskip / no-fast-intra / no-tskip-fast / no-cu-lossless / b-intra / no-splitrd-skip / rdpenalty=1 / psy-rd=0.00 / psy-rdoq=5.00 / no-rd-refine / no-lossless / cbqpoffs=-2 / crqpoffs=-2 / rc=crf / crf=19.0 / qcomp=0.70 / qpstep=4 / stats-write=0 / stats-read=0 / ipratio=1.40 / pbratio=1.30 / aq-mode=2 / aq-strength=0.80 / cutree / zone-count=0 / no-strict-cbr / qg-size=16 / no-rc-grain / qpmax=69 / qpmin=0 / no-const-vbv / sar=0 / overscan=0 / videoformat=5 / range=0 / colorprim=1 / transfer=2 / colormatrix=2 / chromaloc=0 / display-window=0 / max-cll=0,0 / min-luma=0 / max-luma=1023 / log2-max-poc-lsb=8 / vui-timing-info / vui-hrd-info / slices=1 / no-opt-qp-pps / no-opt-ref-list-length-pps / no-multi-pass-opt-rps / scenecut-bias=0.05 / no-opt-cu-delta-qp / no-aq-motion / no-hdr / no-hdr-opt / no-dhdr10-opt / analysis-reuse-level=5 / scale-factor=0 / refine-intra=0 / refine-inter=0 / refine-mv=0 / no-limit-sao / ctu-info=0 / no-lowpass-dct / refine-mv-type=0 / copy-pic=1
  33. Language                                 : Chinese
  34. Default                                  : Yes
  35. Forced                                   : No
  36. Color range                              : Limited
  37. Color primaries                          : BT.709
  38. Audio #1
  39. ID                                       : 2
  40. Format                                   : AC-3
  41. Format/Info                              : Audio Coding 3
  42. Commercial name                          : Dolby Digital
  43. Codec ID                                 : A_AC3
  44. Duration                                 : 2 h 3 min
  45. Bit rate mode                            : Constant
  46. Bit rate                                 : 640 kb/s
  47. Channel(s)                               : 6 channels
  48. Channel layout                           : L R C LFE Ls Rs
  49. Sampling rate                            : 48.0 kHz
  50. Frame rate                               : 31.250 FPS (1536 SPF)
  51. Compression mode                         : Lossy
  52. Stream size                              : 564 MiB (11%)
  53. Title                                    : 粤语
  54. Language                                 : Chinese
  55. Service kind                             : Complete Main
  56. Default                                  : Yes
  57. Forced                                   : No
  58. Audio #2
  59. ID                                       : 3
  60. Format                                   : AC-3
  61. Format/Info                              : Audio Coding 3
  62. Commercial name                          : Dolby Digital
  63. Codec ID                                 : A_AC3
  64. Duration                                 : 2 h 2 min
  65. Bit rate mode                            : Constant
  66. Bit rate                                 : 384 kb/s
  67. Channel(s)                               : 6 channels
  68. Channel layout                           : L R C LFE Ls Rs
  69. Sampling rate                            : 48.0 kHz
  70. Frame rate                               : 31.250 FPS (1536 SPF)
  71. Compression mode                         : Lossy
  72. Delay relative to video                  : 23 s 0 ms
  73. Stream size                              : 337 MiB (7%)
  74. Title                                    : 国语
  75. Language                                 : Chinese
  76. Service kind                             : Complete Main
  77. Default                                  : No
  78. Forced                                   : No
  79. Text #1
  80. ID                                       : 4
  81. Format                                   : PGS
  82. Muxing mode                              : zlib
  83. Codec ID                                 : S_HDMV/PGS
  84. Codec ID/Info                            : Picture based subtitle format used on BDs/HD-DVDs
  85. Duration                                 : 1 h 58 min
  86. Bit rate                                 : 16.2 kb/s
  87. Count of elements                        : 1914
  88. Stream size                              : 13.7 MiB (0%)
  89. Title                                    : 繁体
  90. Language                                 : Chinese
  91. Default                                  : Yes
  92. Forced                                   : No
  93. Text #2
  94. ID                                       : 5
  95. Format                                   : PGS
  96. Muxing mode                              : zlib
  97. Codec ID                                 : S_HDMV/PGS
  98. Codec ID/Info                            : Picture based subtitle format used on BDs/HD-DVDs
  99. Duration                                 : 1 h 58 min
  100. Bit rate                                 : 16.8 kb/s
  101. Count of elements                        : 2064
  102. Stream size                              : 14.3 MiB (0%)
  103. Title                                    : 简体
  104. Language                                 : Chinese
  105. Default                                  : No
  106. Forced                                   : No
  107. Text #3
  108. ID                                       : 6
  109. Format                                   : PGS
  110. Muxing mode                              : zlib
  111. Codec ID                                 : S_HDMV/PGS
  112. Codec ID/Info                            : Picture based subtitle format used on BDs/HD-DVDs
  113. Duration                                 : 1 h 58 min
  114. Bit rate                                 : 17.9 kb/s
  115. Count of elements                        : 2222
  116. Stream size                              : 15.2 MiB (0%)
  117. Title                                    : 英文
  118. Language                                 : English
  119. Default                                  : No
  120. Forced                                   : No





此处一般会放置磁力链或种子下载链接,不过此链接需要注册会员才能看到,点击“立即注册”
磁力链下载【下载链接仅对注册会员开放,登陆后可见】
BT9527电影天堂 1、BT9527电影天堂提供的BT文件均来源于互联网抓取,只供网友学习交流、技术提升使用。
2、我们遵守BitTorrent点对点协议原则,任何版权问题请联系原资源发布商,我们不处理任何版权纠纷,谢谢!如有争议请联系邮箱:BT9527#hotmail.com(#换成@)
3、如果您发现某页面或地址有错误,请联系站长邮箱BT9527#hotmail.com(#换成@),我们会尽快处理。您的热心是对BT9527电影天堂最大的支持。
4、本站建议去正规影院观看电影以支持电影行业发展。
最新回复 (0)

你可以在 登录 or 注册 后,对此帖发表评论!

返回
发新帖