抢红[国语音轨/简繁英字幕].Wine.War.2017.BluRay.1080p.x265.10bit-MiniHD 3.93GB

版主小s 1天前 12

✔资源类型:暂未分类   ✔电影年份:2017   ✔电影地区:大陆   ✔电影分类:动作

◎标  题 抢红
◎译  名 Z计划 / Wine War
◎年  代 2017
◎产  地 中国大陆
◎类  别 动作 / 犯罪
◎语  言 汉语普通话
◎上映日期 2017-05-19(中国大陆)
◎IMDb评分 3.9/10 (111人评价)
◎IMDb链接 https://www.imdb.com/title/tt3699104/
◎豆瓣评分 3.1/10 (7064人评价)
◎豆瓣链接 https://movie.douban.com/subject/26661183/
◎片  长 90分钟
◎导  演 黎明 Leon Lai
◎编  剧 毕成功 Chenggong Bi
       黎明 Leon Lai
◎演  员 张涵予 Hanyu Zhang
       黎明 Leon Lai
       王耀庆 David Wang
       杜鹃 Juan Du
       南伏龙 Fulong Nan
       黄尚禾 Shang-Ho Huang
       吉丽 Lily Ji
       苍井空 Sola Aoi
       张雨晴 Yuqing Zhang
       边程 Cheng Bian

◎标  签 2017 / 动作 / 喜剧 / 华语 / 中国 / 犯罪 / 硬汉 / 处女作

◎简  介
    朝不保夕的司机张水(张涵予 饰),受上司方长方(王耀庆 饰)利诱,答应亲赴法国邀请义弟韦力(黎明 饰)帮忙参加天价红酒的竞拍。张水谎称为国家执行秘密任务骗得韦力的信任,一同前往品酒大会。拍卖现场,张水意外的发现指使自己来参加拍卖会的老板方长方也在现场,而此时的方长方好像从没认识过张水...品酒会的主持者利芳(杜鹃 饰)与各路买家逐一品酒,只有通过考验的人才可以参与到竞拍环节。                                    
                                  利芳同父异母的哥哥LK此时在众人之外静静的看着所发生的一切,谁也想不到,拍卖会的真正目的根本不是卖酒……
  1. ##### MediaInfo ######
  2. General
  3. Unique ID                                : 21612055920194869163278350507002088708 (0x1042549FF345147F5E210FE180B4CD04)
  4. Complete name                            : Wine.War.2017.BluRay.1080p.x265.10bit-MiniHD.mkv
  5. Format                                   : Matroska
  6. Format version                           : Version 4
  7. File size                                : 3.93 GiB
  8. Duration                                 : 1 h 30 min
  9. Overall bit rate                         : 6 245 kb/s
  10. Encoded date                             : UTC 2018-03-29 23:09:02
  11. Writing application                      : mkvmerge v19.0.0 ('Brave Captain') 64-bit
  12. Writing library                          : libebml v1.3.5 + libmatroska v1.4.8
  13. Video
  14. ID                                       : 1
  15. Format                                   : HEVC
  16. Format/Info                              : High Efficiency Video Coding
  17. Format profile                           : Main 10@L4@Main
  18. Codec ID                                 : V_MPEGH/ISO/HEVC
  19. Duration                                 : 1 h 30 min
  20. Bit rate                                 : 5 560 kb/s
  21. Width                                    : 1 920 pixels
  22. Height                                   : 804 pixels
  23. Display aspect ratio                     : 2.40:1
  24. Frame rate mode                          : Constant
  25. Frame rate                               : 24.000 FPS
  26. Color space                              : YUV
  27. Chroma subsampling                       : 4:2:0
  28. Bit depth                                : 10 bits
  29. Bits/(Pixel*Frame)                       : 0.150
  30. Stream size                              : 3.50 GiB (89%)
  31. Title                                    : Wine.War.2017.BluRay.1080p.x265.10bit.MNHD-FRDS
  32. Writing library                          : x265 2.7+1-2aa737a99f51:[Windows][GCC 7.3.0][64 bit] 10bit
  33. Encoding settings                        : cpuid=533541173503 / frame-threads=3 / numa-pools=8 / wpp / no-pmode / no-pme / no-psnr / no-ssim / log-level=2 / input-csp=1 / input-res=1920x804 / interlace=0 / total-frames=129672 / level-idc=0 / high-tier=1 / uhd-bd=0 / ref=5 / no-allow-non-conformance / no-repeat-headers / annexb / no-aud / no-hrd / info / hash=0 / no-temporal-layers / no-open-gop / min-keyint=1 / keyint=360 / gop-lookahead=0 / bframes=8 / b-adapt=2 / b-pyramid / bframe-bias=0 / rc-lookahead=60 / lookahead-slices=4 / NTMzNTQ=uuDQuD2mJt9fsCf / scenecut=40 / radl=0 / no-intra-refresh / ctu=32 / min-cu-size=8 / rect / no-amp / max-tu-size=16 / tu-inter-depth=2 / tu-intra-depth=2 / limit-tu=0 / rdoq-level=2 / dynamic-rd=0.00 / no-ssim-rd / signhide / no-tskip / nr-intra=0 / nr-inter=0 / no-constrained-intra / no-strong-intra-smoothing / max-merge=3 / limit-refs=3 / limit-modes / me=3 / subme=5 / merange=25 / temporal-mvp / weightp / weightb / no-analyze-src-pics / deblock=-1:-1 / no-sao / no-sao-non-deblock / rd=4 / no-early-skip / rskip / no-fast-intra / no-tskip-fast / no-cu-lossless / b-intra / no-splitrd-skip / rdpenalty=1 / psy-rd=2.00 / psy-rdoq=5.00 / no-rd-refine / no-lossless / cbqpoffs=-2 / crqpoffs=-2 / rc=crf / crf=17.5 / qcomp=0.60 / qpstep=4 / stats-write=0 / stats-read=0 / ipratio=1.40 / pbratio=1.30 / aq-mode=2 / aq-strength=0.90 / cutree / zone-count=0 / no-strict-cbr / qg-size=16 / no-rc-grain / qpmax=69 / qpmin=0 / no-const-vbv / sar=1 / overscan=0 / videoformat=5 / range=0 / colorprim=1 / transfer=2 / colormatrix=2 / chromaloc=0 / display-window=0 / max-cll=0,0 / min-luma=0 / max-luma=1023 / log2-max-poc-lsb=8 / vui-timing-info / vui-hrd-info / slices=1 / no-opt-qp-pps / no-opt-ref-list-length-pps / no-multi-pass-opt-rps / scenecut-bias=0.05 / no-opt-cu-delta-qp / no-aq-motion / no-hdr / no-hdr-opt / no-dhdr10-opt / analysis-reuse-level=5 / scale-factor=0 / refine-intra=0 / refine-inter=0 / refine-mv=0 / no-limit-sao / ctu-info=0 / no-lowpass-dct / refine-mv-type=0 / copy-pic=1
  34. Language                                 : Chinese
  35. Default                                  : Yes
  36. Forced                                   : No
  37. Color range                              : Limited
  38. Color primaries                          : BT.709
  39. Audio
  40. ID                                       : 2
  41. Format                                   : AC-3
  42. Format/Info                              : Audio Coding 3
  43. Commercial name                          : Dolby Digital
  44. Codec ID                                 : A_AC3
  45. Duration                                 : 1 h 29 min
  46. Bit rate mode                            : Constant
  47. Bit rate                                 : 640 kb/s
  48. Channel(s)                               : 6 channels
  49. Channel layout                           : L R C LFE Ls Rs
  50. Sampling rate                            : 48.0 kHz
  51. Frame rate                               : 31.250 FPS (1536 SPF)
  52. Compression mode                         : Lossy
  53. Delay relative to video                  : 2 s 0 ms
  54. Stream size                              : 412 MiB (10%)
  55. Title                                    : Mandarin DD 5.1 640kbps
  56. Language                                 : Chinese
  57. Service kind                             : Complete Main
  58. Default                                  : Yes
  59. Forced                                   : No
  60. Text #1
  61. ID                                       : 3
  62. Format                                   : PGS
  63. Muxing mode                              : zlib
  64. Codec ID                                 : S_HDMV/PGS
  65. Codec ID/Info                            : Picture based subtitle format used on BDs/HD-DVDs
  66. Duration                                 : 1 h 18 min
  67. Bit rate                                 : 37.3 kb/s
  68. Count of elements                        : 2508
  69. Stream size                              : 21.0 MiB (1%)
  70. Title                                    : ENG/PGS
  71. Language                                 : English
  72. Default                                  : Yes
  73. Forced                                   : No
  74. Text #2
  75. ID                                       : 4
  76. Format                                   : PGS
  77. Muxing mode                              : zlib
  78. Codec ID                                 : S_HDMV/PGS
  79. Codec ID/Info                            : Picture based subtitle format used on BDs/HD-DVDs
  80. Duration                                 : 1 h 18 min
  81. Bit rate                                 : 32.8 kb/s
  82. Count of elements                        : 2508
  83. Stream size                              : 18.5 MiB (0%)
  84. Title                                    : CHS/PGS
  85. Language                                 : Chinese
  86. Default                                  : No
  87. Forced                                   : No
  88. Text #3
  89. ID                                       : 5
  90. Format                                   : PGS
  91. Muxing mode                              : zlib
  92. Codec ID                                 : S_HDMV/PGS
  93. Codec ID/Info                            : Picture based subtitle format used on BDs/HD-DVDs
  94. Duration                                 : 1 h 18 min
  95. Bit rate                                 : 35.3 kb/s
  96. Count of elements                        : 2508
  97. Stream size                              : 19.9 MiB (0%)
  98. Title                                    : CHT/PGS
  99. Language                                 : Chinese
  100. Default                                  : No
  101. Forced                                   : No
  102. Menu
  103. 00:00:00.000                             : en:00:00:00.000
  104. 00:05:35.208                             : en:00:05:35.208
  105. 00:09:35.708                             : en:00:09:35.708
  106. 00:13:01.917                             : en:00:13:01.917
  107. 00:18:37.000                             : en:00:18:37.000
  108. 00:21:03.375                             : en:00:21:03.375
  109. 00:26:36.750                             : en:00:26:36.750
  110. 00:32:21.667                             : en:00:32:21.667
  111. 00:38:04.792                             : en:00:38:04.792
  112. 00:45:37.625                             : en:00:45:37.625
  113. 00:50:02.833                             : en:00:50:02.833
  114. 00:56:31.125                             : en:00:56:31.125
  115. 01:00:27.500                             : en:01:00:27.500
  116. 01:04:58.875                             : en:01:04:58.875
  117. 01:10:30.250                             : en:01:10:30.250
  118. 01:15:12.042                             : en:01:15:12.042
  119. 01:19:04.333                             : en:01:19:04.333
  120. 01:22:39.167                             : en:01:22:39.167





此处一般会放置磁力链或种子下载链接,不过此链接需要注册会员才能看到,点击“立即注册”
磁力链下载【下载链接仅对注册会员开放,登陆后可见】
BT9527电影天堂 1、BT9527电影天堂提供的BT文件均来源于互联网抓取,只供网友学习交流、技术提升使用。
2、我们遵守BitTorrent点对点协议原则,任何版权问题请联系原资源发布商,我们不处理任何版权纠纷,谢谢!如有争议请联系邮箱:BT9527#hotmail.com(#换成@)
3、如果您发现某页面或地址有错误,请联系站长邮箱BT9527#hotmail.com(#换成@),我们会尽快处理。您的热心是对BT9527电影天堂最大的支持。
4、本站建议去正规影院观看电影以支持电影行业发展。
最新回复 (0)

你可以在 登录 or 注册 后,对此帖发表评论!

返回
发新帖