战狼2[国语音轨/简繁英字幕].Wolf.Warrior.II.2017.HK.BluRay.1080p.x265.10bit-MiniHD 4.84GB

版主小s 1天前 9

✔资源类型:暂未分类   ✔电影年份:2017   ✔电影地区:大陆   ✔电影分类:动作

◎标  题 战狼2
◎译  名 新战狼 / 新战死沙场 / Wolf Warriors 2
◎年  代 2017
◎产  地 中国大陆
◎类  别 动作 / 战争
◎语  言 汉语普通话 / 英语
◎上映日期 2017-07-27(中国大陆)
◎IMDb评分 6/10 (7595人评价)
◎IMDb链接 https://www.imdb.com/title/tt7131870/
◎豆瓣评分 7.1/10 (822552人评价)
◎豆瓣链接 https://movie.douban.com/subject/26363254/
◎片  长 123分钟
◎导  演 吴京 Jing Wu
◎编  剧 吴京 Jing Wu
       董群 Qun Dong
       刘毅 Yi Liu
       高岩 Yan Gao
◎演  员 吴京 Jing Wu
       弗兰克·格里罗 Frank Grillo
       吴刚 Gang Wu
       张翰 Han Zhang
       卢靖姗 Celina Jade
       丁海峰 Haifeng Ding
       淳于珊珊 Shanshan Chunyu
       余男 Nan Yu
       于谦 Qian Yu
       石兆琪 Zhaoqi Shi
       海蒂·莫尼梅克 Heidi Moneymaker
       奥列格·亚历山大罗维奇 Oleg Aleksandrovich Prudius
       艾伦·托尼 Aaron Toney
       赛尔·哈里斯 Thayr Harris
       高明 Ming Gao
       王森 Sen Wang
       苇青 Qing Wei
       程愫 Su Cheng
       张永达 Yongda Zhang
       郭秋成 Qiucheng Guo
       杜建桥 Jianqiao Du
       周冠廷 Guanting Zhou
       安·詹姆斯 Ann James
       黛安娜·希拉 Diana Sylla
       孙率航 Shuaihang Sun
       张馨月 Xinyue Zhang
       关海龙 Hailong Guan
       安妮塔·斯图尔特 Anita Stewart
       特雷弗·琼斯 Trevor Jones
       奥斯汀·普里斯特 Austin Priester
       克莱·方特诺特 Clay Donahue Fontenot
       保罗·艾力卡 Paul Allica
       丹尼尔·哈格里夫 Daniel Hargrave
       李镇男 Aaron Lee
       庄小龙 Xiaolong Zhuang
       陈云志 Yunzhi Chen
       肯尼迪 Nwachukwu Kennedy Chukwuebuka
       宋歌 Ge Song
       喜利图 Keith Shillitoe
       希尔维斯塔·斯图尔特 Sylvesta Stuart

◎标  签 动作 / 热血 / 军事 / 爱国 / 战争 / 特种部队 / 中国大陆 / 燃

◎简  介
    由于一怒杀害了强拆牺牲战友房子的恶霸,屡立功勋的冷锋(吴京 饰)受到军事法庭的判决。在押期间,亲密爱人龙小云壮烈牺牲。出狱后,冷锋辗转来到非洲,他辗转各地,只为寻找杀害小云的凶手。在此期间,冷锋逗留的国家发生叛乱,叛徒红巾军大开杀戒,血流成河。中国派出海军执行撤侨任务,期间冷锋得知有一位陈博士被困在五十五公里外的医院,而叛军则试图抓住这位博士。而从另一位华侨(于谦 饰)口中得知,杀害小云的凶手正待在这个国家。                                    
                                  在无法得到海军支援的情况下,冷锋只身闯入硝烟四起的战场。不屈不挠的战狼,与冷酷无情的敌人展开悬殊之战……
  1. ##### MediaInfo ######
  2. General
  3. Unique ID                                : 219121697350443552957223236047005942847 (0xA4D94DC8682F0A16865F97EE57AE043F)
  4. Complete name                            : Wolf.Warrior.II.2017.HK.BluRay.1080p.x265.10bit-MiniHD.mkv
  5. Format                                   : Matroska
  6. Format version                           : Version 4
  7. File size                                : 4.84 GiB
  8. Duration                                 : 2 h 3 min
  9. Overall bit rate                         : 5 609 kb/s
  10. Encoded date                             : UTC 2018-01-28 14:30:27
  11. Writing application                      : mkvmerge v18.0.0 ('Apricity') 64-bit
  12. Writing library                          : libebml v1.3.5 + libmatroska v1.4.8
  13. Video
  14. ID                                       : 1
  15. Format                                   : HEVC
  16. Format/Info                              : High Efficiency Video Coding
  17. Format profile                           : Main 10@L4@Main
  18. Codec ID                                 : V_MPEGH/ISO/HEVC
  19. Duration                                 : 2 h 3 min
  20. Bit rate                                 : 4 943 kb/s
  21. Width                                    : 1 920 pixels
  22. Height                                   : 804 pixels
  23. Display aspect ratio                     : 2.40:1
  24. Frame rate mode                          : Constant
  25. Frame rate                               : 24.000 FPS
  26. Color space                              : YUV
  27. Chroma subsampling                       : 4:2:0
  28. Bit depth                                : 10 bits
  29. Bits/(Pixel*Frame)                       : 0.133
  30. Stream size                              : 4.26 GiB (88%)
  31. Writing library                          : x265 2.6+14-f09f3b4a2115:[Windows][GCC 7.2.0][64 bit] 10bit
  32. Encoding settings                        : cpuid=533541173503 / frame-threads=3 / numa-pools=8 / wpp / no-pmode / no-pme / no-psnr / no-ssim / log-level=2 / input-csp=1 / input-res=1920x804 / interlace=0 / total-frames=177823 / level-idc=0 / high-tier=1 / uhd-bd=0 / ref=5 / no-allow-non-conformance / no-repeat-headers / annexb / no-aud / no-hrd / info / hash=0 / no-temporal-layers / no-open-gop / min-keyint=1 / keyint=360 / gop-lookahead=0 / bframes=8 / b-adapt=2 / b-pyramid / bframe-bias=0 / rc-lookahead=40 / lookahead-slices=4 / NTMzNTQ=uuDQuD2mJt9fsCf / scenecut=40 / no-intra-refresh / ctu=32 / min-cu-size=8 / rect / no-amp / max-tu-size=16 / tu-inter-depth=2 / tu-intra-depth=2 / limit-tu=4 / rdoq-level=1 / dynamic-rd=0.00 / ssim-rd / signhide / no-tskip / nr-intra=0 / nr-inter=0 / no-constrained-intra / no-strong-intra-smoothing / max-merge=3 / limit-refs=2 / limit-modes / me=3 / subme=5 / merange=25 / temporal-mvp / weightp / weightb / no-analyze-src-pics / deblock=-1:-1 / no-sao / no-sao-non-deblock / rd=4 / no-early-skip / rskip / no-fast-intra / no-tskip-fast / no-cu-lossless / b-intra / no-splitrd-skip / rdpenalty=1 / psy-rd=0.00 / psy-rdoq=5.00 / no-rd-refine / analysis-reuse-mode=0 / no-lossless / cbqpoffs=-2 / crqpoffs=-2 / rc=crf / crf=21.0 / qcomp=0.75 / qpstep=4 / stats-write=0 / stats-read=0 / ipratio=1.30 / pbratio=1.20 / aq-mode=2 / aq-strength=0.80 / cutree / zone-count=0 / no-strict-cbr / qg-size=16 / no-rc-grain / qpmax=69 / qpmin=0 / no-const-vbv / sar=1 / overscan=0 / videoformat=5 / range=0 / colorprim=1 / transfer=2 / colormatrix=2 / chromaloc=0 / display-window=0 / max-cll=0,0 / min-luma=0 / max-luma=1023 / log2-max-poc-lsb=8 / vui-timing-info / vui-hrd-info / slices=1 / no-opt-qp-pps / no-opt-ref-list-length-pps / no-multi-pass-opt-rps / scenecut-bias=0.05 / no-opt-cu-delta-qp / no-aq-motion / no-hdr / no-hdr-opt / no-dhdr10-opt / analysis-reuse-level=5 / scale-factor=0 / refine-intra=0 / refine-inter=0 / refine-mv=0 / no-limit-sao / ctu-info=0 / no-lowpass-dct / refine-mv-type=0 / copy-pic=1
  33. Default                                  : Yes
  34. Forced                                   : No
  35. Color range                              : Limited
  36. Color primaries                          : BT.709
  37. Audio
  38. ID                                       : 2
  39. Format                                   : AC-3
  40. Format/Info                              : Audio Coding 3
  41. Commercial name                          : Dolby Digital
  42. Codec ID                                 : A_AC3
  43. Duration                                 : 2 h 3 min
  44. Bit rate mode                            : Constant
  45. Bit rate                                 : 640 kb/s
  46. Channel(s)                               : 6 channels
  47. Channel layout                           : L R C LFE Ls Rs
  48. Sampling rate                            : 48.0 kHz
  49. Frame rate                               : 31.250 FPS (1536 SPF)
  50. Compression mode                         : Lossy
  51. Stream size                              : 565 MiB (11%)
  52. Language                                 : Chinese
  53. Service kind                             : Complete Main
  54. Default                                  : Yes
  55. Forced                                   : No
  56. Text #1
  57. ID                                       : 3
  58. Format                                   : PGS
  59. Muxing mode                              : zlib
  60. Codec ID                                 : S_HDMV/PGS
  61. Codec ID/Info                            : Picture based subtitle format used on BDs/HD-DVDs
  62. Duration                                 : 1 h 56 min
  63. Bit rate                                 : 18.3 kb/s
  64. Count of elements                        : 2165
  65. Stream size                              : 15.2 MiB (0%)
  66. Title                                    : 英语
  67. Language                                 : English
  68. Default                                  : No
  69. Forced                                   : No
  70. Text #2
  71. ID                                       : 4
  72. Format                                   : PGS
  73. Muxing mode                              : zlib
  74. Codec ID                                 : S_HDMV/PGS
  75. Codec ID/Info                            : Picture based subtitle format used on BDs/HD-DVDs
  76. Duration                                 : 1 h 55 min
  77. Bit rate                                 : 15.3 kb/s
  78. Count of elements                        : 1447
  79. Stream size                              : 12.6 MiB (0%)
  80. Title                                    : 简体
  81. Language                                 : Chinese
  82. Default                                  : Yes
  83. Forced                                   : No
  84. Text #3
  85. ID                                       : 5
  86. Format                                   : PGS
  87. Muxing mode                              : zlib
  88. Codec ID                                 : S_HDMV/PGS
  89. Codec ID/Info                            : Picture based subtitle format used on BDs/HD-DVDs
  90. Duration                                 : 1 h 55 min
  91. Bit rate                                 : 15.9 kb/s
  92. Count of elements                        : 1447
  93. Stream size                              : 13.1 MiB (0%)
  94. Title                                    : 繁体
  95. Language                                 : Chinese
  96. Default                                  : No
  97. Forced                                   : No
  98. Menu
  99. 00:00:00.000                             : en:Chapter 01
  100. 00:10:36.166                             : en:Chapter 02
  101. 00:19:35.125                             : en:Chapter 03
  102. 00:33:50.958                             : en:Chapter 04
  103. 00:46:34.208                             : en:Chapter 05
  104. 00:56:13.750                             : en:Chapter 06
  105. 01:07:45.000                             : en:Chapter 07
  106. 01:16:24.666                             : en:Chapter 08
  107. 01:31:50.250                             : en:Chapter 09
  108. 01:39:48.875                             : en:Chapter 10
  109. 01:52:23.791                             : en:Chapter 11
  110. 01:59:07.416                             : en:Chapter 12





此处一般会放置磁力链或种子下载链接,不过此链接需要注册会员才能看到,点击“立即注册”
磁力链下载【下载链接仅对注册会员开放,登陆后可见】
BT9527电影天堂 1、BT9527电影天堂提供的BT文件均来源于互联网抓取,只供网友学习交流、技术提升使用。
2、我们遵守BitTorrent点对点协议原则,任何版权问题请联系原资源发布商,我们不处理任何版权纠纷,谢谢!如有争议请联系邮箱:BT9527#hotmail.com(#换成@)
3、如果您发现某页面或地址有错误,请联系站长邮箱BT9527#hotmail.com(#换成@),我们会尽快处理。您的热心是对BT9527电影天堂最大的支持。
4、本站建议去正规影院观看电影以支持电影行业发展。
最新回复 (0)

你可以在 登录 or 注册 后,对此帖发表评论!

返回
发新帖