快手枪手快枪手[国语音轨/简繁英字幕].For.a.Few.Bullets.2016.BluRay.1080p.x265.10bit-MiniHD 5.10GB

版主小s 10天前 32

✔资源类型:暂未分类   ✔电影年份:2016   ✔电影地区:大陆   ✔电影分类:喜剧

◎标  题 快手枪手快枪手
◎译  名 火烧云 / 快手·枪手·快枪手 / 龙城计中计 / For A Few Bullets
◎年  代 2016
◎产  地 中国大陆
◎类  别 喜剧 / 动作
◎语  言 汉语普通话
◎上映日期 2016-07-15(中国大陆)
◎IMDb评分 5.2/10 (198人评价)
◎IMDb链接 https://www.imdb.com/title/tt5882704/
◎豆瓣评分 5.3/10 (27233人评价)
◎豆瓣链接 https://movie.douban.com/subject/26219893/
◎片  长 115分钟
◎导  演 潘安子 Anzi Pan
◎编  剧 潘安子 Anzi Pan
       周智勇 Zhiyong Zhou
◎演  员 林更新 Gengxin Lin
       张静初 Jingchu Zhang
       腾格尔 Tengger
       刘晓庆 Xiaoqing Liu
       锦荣 Vivian Dawson
       曾江 Kenneth Tsang
       施予斐 Yufei Shi
       含笑 Xiao Han
       文淇 Qi Wen
       詹姆斯·奥夫斯 James Alofs
       韩秋池 Qiuchi Han
       关凌 Ling Guan
       梁天 Tian Liang
        
       远明 George Christopher Tronsrue
       刘鹏
       范霞 Xia Fan
       王改改
       杨江 Jiang Yang
       赵楠 Nan Zhao
       李昭桦 Charles Lee
       杨德毅 Jacky Yeung
       彭瑛朝 Penny

◎标  签 喜剧 / 搞笑 / 动作 / 冒险 / 中国 / 国产 / 2016 / 内地

◎简  介
  市井骗子小庄(林更新 饰)机智却爱耍小聪明,以一双“快手”行走江湖,赌局中被“枪手”李若云(张静初 饰)威胁,踏上找回传国玉玺的寻宝之路。途中二人默契配合,与老顽童石佛(腾格尔 饰)、金三娘(刘晓庆 饰)夫妻二人组成“夺宝者联盟”,与觊觎国宝的宋静之(锦荣 饰)等斗智斗勇,夺宝途中一段段故事让人啼笑皆非……
  1. ##### MediaInfo ######
  2. General
  3. Unique ID                                : 189137536042413417178453660414733996955 (0x8E4A907E4C8DE152A204C0F33008539B)
  4. Complete name                            : For.a.Few.Bullets.2016.BluRay.1080p.x265.10bit-MiniHD.mkv
  5. Format                                   : Matroska
  6. Format version                           : Version 4
  7. File size                                : 5.10 GiB
  8. Duration                                 : 1 h 55 min
  9. Overall bit rate                         : 6 343 kb/s
  10. Encoded date                             : UTC 2018-04-11 00:08:50
  11. Writing application                      : mkvmerge v15.0.0 ('Duel with the Devil') 32-bit
  12. Writing library                          : libebml v1.3.5 + libmatroska v1.4.5
  13. Video
  14. ID                                       : 1
  15. Format                                   : HEVC
  16. Format/Info                              : High Efficiency Video Coding
  17. Format profile                           : Main 10@L4@Main
  18. Codec ID                                 : V_MPEGH/ISO/HEVC
  19. Duration                                 : 1 h 55 min
  20. Bit rate                                 : 5 675 kb/s
  21. Width                                    : 1 920 pixels
  22. Height                                   : 804 pixels
  23. Display aspect ratio                     : 2.40:1
  24. Frame rate mode                          : Constant
  25. Frame rate                               : 24.000 FPS
  26. Color space                              : YUV
  27. Chroma subsampling                       : 4:2:0
  28. Bit depth                                : 10 bits
  29. Bits/(Pixel*Frame)                       : 0.153
  30. Stream size                              : 4.56 GiB (89%)
  31. Title                                    : For.a.Few.Bullets.2016.BluRay.1080p.x265.10bit.MNHD-FRDS
  32. Writing library                          : x265 2.2+2-998d4520d1cf:[Windows][GCC 6.2.0][64 bit] 10bit
  33. Encoding settings                        : cpuid=533541173503 / frame-threads=5 / numa-pools=16 / wpp / no-pmode / no-pme / no-psnr / no-ssim / log-level=2 / input-csp=1 / input-res=1920x804 / interlace=0 / total-frames=165660 / level-idc=0 / high-tier=1 / uhd-bd=0 / ref=5 / no-allow-non-conformance / no-repeat-headers / annexb / no-aud / no-hrd / info / hash=0 / no-temporal-layers / no-open-gop / min-keyint=1 / keyint=360 / bframes=8 / b-adapt=2 / b-pyramid / bframe-bias=0 / rc-lookahead=60 / lookahead-slices=4 / NTMzNTQ=uuDQuD2mJt9fsCf / scenecut=40 / no-intra-refresh / ctu=32 / min-cu-size=8 / rect / no-amp / max-tu-size=16 / tu-inter-depth=2 / tu-intra-depth=2 / limit-tu=0 / rdoq-level=2 / signhide / no-tskip / nr-intra=0 / nr-inter=0 / no-constrained-intra / no-strong-intra-smoothing / max-merge=3 / limit-refs=3 / limit-modes / me=3 / subme=5 / merange=25 / temporal-mvp / weightp / weightb / no-analyze-src-pics / deblock=-1:-1 / no-sao / no-sao-non-deblock / rd=4 / no-early-skip / rskip / no-fast-intra / no-tskip-fast / no-cu-lossless / b-intra / rdpenalty=1 / psy-rd=2.00 / psy-rdoq=5.00 / no-rd-refine / analysis-mode=0 / no-lossless / cbqpoffs=-2 / crqpoffs=-2 / rc=crf / crf=19.0 / qcomp=0.60 / qpstep=4 / stats-write=0 / stats-read=0 / ipratio=1.40 / pbratio=1.30 / aq-mode=2 / aq-strength=0.90 / cutree / zone-count=0 / no-strict-cbr / qg-size=16 / no-rc-grain / qpmax=69 / qpmin=0 / sar=1 / overscan=0 / videoformat=5 / range=0 / colorprim=1 / transfer=2 / colormatrix=2 / chromaloc=0 / display-window=0 / max-cll=0,0 / min-luma=0 / max-luma=1023 / log2-max-poc-lsb=8 / vui-timing-info / vui-hrd-info / slices=1 / opt-qp-pps / opt-ref-list-length-pps / no-multi-pass-opt-rps / scenecut-bias=0.05
  34. Language                                 : Chinese
  35. Default                                  : Yes
  36. Forced                                   : No
  37. Color range                              : Limited
  38. Color primaries                          : BT.709
  39. Audio
  40. ID                                       : 2
  41. Format                                   : AC-3
  42. Format/Info                              : Audio Coding 3
  43. Commercial name                          : Dolby Digital
  44. Codec ID                                 : A_AC3
  45. Duration                                 : 1 h 55 min
  46. Bit rate mode                            : Constant
  47. Bit rate                                 : 640 kb/s
  48. Channel(s)                               : 6 channels
  49. Channel layout                           : L R C LFE Ls Rs
  50. Sampling rate                            : 48.0 kHz
  51. Frame rate                               : 31.250 FPS (1536 SPF)
  52. Compression mode                         : Lossy
  53. Stream size                              : 527 MiB (10%)
  54. Title                                    : Mandarin DD 5.1 640kbps
  55. Language                                 : Chinese
  56. Service kind                             : Complete Main
  57. Default                                  : Yes
  58. Forced                                   : No
  59. Text #1
  60. ID                                       : 3
  61. Format                                   : PGS
  62. Muxing mode                              : zlib
  63. Codec ID                                 : S_HDMV/PGS
  64. Codec ID/Info                            : Picture based subtitle format used on BDs/HD-DVDs
  65. Duration                                 : 1 h 49 min
  66. Bit rate                                 : 26.3 kb/s
  67. Count of elements                        : 2828
  68. Stream size                              : 20.5 MiB (0%)
  69. Title                                    : ENG/PGS
  70. Language                                 : English
  71. Default                                  : Yes
  72. Forced                                   : No
  73. Text #2
  74. ID                                       : 4
  75. Format                                   : PGS
  76. Muxing mode                              : zlib
  77. Codec ID                                 : S_HDMV/PGS
  78. Codec ID/Info                            : Picture based subtitle format used on BDs/HD-DVDs
  79. Duration                                 : 1 h 49 min
  80. Bit rate                                 : 14.8 kb/s
  81. Count of elements                        : 2612
  82. Stream size                              : 11.5 MiB (0%)
  83. Title                                    : CHS/PGS
  84. Language                                 : Chinese
  85. Default                                  : No
  86. Forced                                   : No
  87. Text #3
  88. ID                                       : 5
  89. Format                                   : PGS
  90. Muxing mode                              : zlib
  91. Codec ID                                 : S_HDMV/PGS
  92. Codec ID/Info                            : Picture based subtitle format used on BDs/HD-DVDs
  93. Duration                                 : 1 h 49 min
  94. Bit rate                                 : 15.6 kb/s
  95. Count of elements                        : 2612
  96. Stream size                              : 12.2 MiB (0%)
  97. Title                                    : CHT/PGS
  98. Language                                 : Chinese
  99. Default                                  : No
  100. Forced                                   : No
  101. Menu
  102. 00:00:00.000                             : en:00:00:00.000
  103. 00:07:30.458                             : en:00:07:30.458
  104. 00:16:50.458                             : en:00:16:50.458
  105. 00:23:29.375                             : en:00:23:29.375
  106. 00:37:16.417                             : en:00:37:16.417
  107. 00:48:51.250                             : en:00:48:51.250
  108. 00:58:38.458                             : en:00:58:38.458
  109. 01:08:39.625                             : en:01:08:39.625
  110. 01:17:46.958                             : en:01:17:46.958
  111. 01:27:02.042                             : en:01:27:02.042
  112. 01:35:51.375                             : en:01:35:51.375
  113. 01:43:29.167                             : en:01:43:29.167





此处一般会放置磁力链或种子下载链接,不过此链接需要注册会员才能看到,点击“立即注册”
磁力链下载【下载链接仅对注册会员开放,登陆后可见】
BT9527电影天堂 1、BT9527电影天堂提供的BT文件均来源于互联网抓取,只供网友学习交流、技术提升使用。
2、我们遵守BitTorrent点对点协议原则,任何版权问题请联系原资源发布商,我们不处理任何版权纠纷,谢谢!如有争议请联系邮箱:BT9527#hotmail.com(#换成@)
3、如果您发现某页面或地址有错误,请联系站长邮箱BT9527#hotmail.com(#换成@),我们会尽快处理。您的热心是对BT9527电影天堂最大的支持。
4、本站建议去正规影院观看电影以支持电影行业发展。
最新回复 (0)

你可以在 登录 or 注册 后,对此帖发表评论!

返回
发新帖