建党伟业[简繁字幕].Beginning.of.the.Great.Revival.2011.BluRay.1080p.x265.10bit-MiniHD 6.29GB

版主小s 3月前 125

✔资源类型:暂未分类   ✔电影年份:2011   ✔电影地区:大陆   ✔电影分类:剧情

◎标  题 建党伟业
◎译  名 建党大业 / Beginning of The Great Revival / The Founding of a Party
◎年  代 2011
◎产  地 中国大陆 / 中国香港
◎类  别 剧情 / 历史
◎语  言 汉语普通话 / 日语 / 法语 / 俄语 / 英语
◎上映日期 2011-06-15(中国大陆) / 2016-11-04(中国大陆3D重映)
◎IMDb评分 3/10 (6248人评价)
◎IMDb链接 https://www.imdb.com/title/tt1699513/
◎豆瓣链接 https://movie.douban.com/subject/4073898/
◎片  长 124分钟
◎导  演 韩三平 Sanping Han
       黄建新 Jianxin Huang
       陆川 Chuan Lu
       李少红 Shaohong Li
       沈东 Dong Shen
◎编  剧 董哲 Zhe Dong
       郭俊立 Junli Guo
       黄建新 Jianxin Huang
◎演  员 刘烨 Ye Liu
       冯远征 Yuanzheng Feng
       张嘉益 Jiayi Zhang
       陈坤 Kun Chen
       马少骅 Shaohua Ma
       李沁 Qin Li
       周润发 Yun-Fat Chow
       赵本山 Benshan Zhao
       黄磊 Lei Huang
       吕良伟 Ray Lui
       刘德华 Andy Lau
       廖凡 Fan Liao
       董洁 Jie Dong
       周迅 Xun Zhou
       范冰冰 Bingbing Fan
       张一山 Yishan Zhang
       王丹戎 Danrong Wang
       李晨 Chen Li
       黄轩 Xuan Huang
       戚玉武 Yuwu Qi
       王学兵 Xuebing Wang
       周杰 Jie Zhou
       王柏杰 Bo-Chieh Wang
       董璇 Xuan Dong
       叶璇 Michelle Ye
       柳云龙 Yunlong Liu
       张家辉 Nick Cheung
       范伟 Wei Fan
       方中信 Alex Fong
       冯巩 Gong Feng
       余少群 Shaoqun Yu
       张涵予 Hanyu Zhang
       李菁 Jing Li
       陶泽如 Zeru Tao
       侯勇 Yong Hou
       吴彦祖 Daniel Wu
       王学圻 Xueqi Wang
       冯丹滢 Danying Feng
       徐峥 Zheng Xu
       车永莉 Yongli Che
       王珞丹 Luodan Wang
       陈道明 Daoming Chen
       刘桦 Hua Liu
       井柏然 Boran Jing
       王力宏 Lee-Hom Wang
       刘佩琦 Peiqi Liu
       爱新觉罗·启星 Qixing Aisin-Gioro
       韩庚 Han geng
       邓超 Chao Deng
       何平 Ping He
       李雪健 Xuejian Li
       维塔斯 Vitas
       潘粤明 Yueming Pan
       方力申 Lik-Sun Fong
       任达华 Simon Yam
       李湘 Xiang Li
       郭晓东 Xiaodong Guo
       姜武 Wu Jiang
       杨洋 Yang Yang
       郭涛 Tao Guo
       句号 Hao Ju
       杨颖 Angelababy
       张震 Chen Chang
       汤唯 Wei Tang
       张译 Yi Zhang
       梁家辉 Tony Leung
       吴宇森 John Woo
       杨千嬅 Miriam Yeung
       刘涛 Tao Liu
       白冰 Bing Bai
       陈建斌 Jianbin Chen
       祖峰 Feng Zu
       黄觉 Jue Huang
       江珊 Shan Jiang
       张杰 Jie Zhang
       林雨申 Shen Lin
       聂远 Yuan Nie
       谭凯 Kai Tan
       李泽锋 Zefeng Li
       胡杏儿 Myolie Wu
       李诚儒 Chengru Li
       田小洁 Xiaojie Tian
       代旭 Xu Dai
       韩三平 Sanping Han
       任重 Zhong Ren
       徐海乔 Haiqiao Xu
       包贝尔 Bei'er Bao
       林永健 Yongjian Lin
       小沈阳 Xiao Shen-Yang
       王栎鑫 Yuexin Wang
       付辛博 Xinbo Fu
       果靖霖 Jinglin Guo
       刘仪伟 Yiwei Liu
       刘劲 Jin Liu
       洪剑涛 Jiantao Hong
       于晓光 Xiaoguang Yu
       赵亮 Liang Zhao
       王新军 Xinjun Wang
       王洁曦 Jiexi Wang
       佟瑞欣 Ruixin Tong
       三浦研一 Kenichi Miura
       范志博 Zhibo Fan
       于笑 Xiao Yu
       何沄伟 Yunwei He
       刘文治 Wenzhi Liu
       一真 Zhen Yi
       李歌 Ge Li
       夏凡 Fan Xia
       翟俊杰 Junjie Zhai
       邹俊百 Sam Chow
       赵保乐 Baole Zhao
       阿曼·达博 Arman Darbo
       裘慕远 Muyuan Qiu
       金池 Ada
       穆雷克 Murray Clive
       姜冰 Bing Jiang
       刘默然 Moran Liu
       泰德·杜兰 Ted Duran
       王海龙 Hailong Wang
       秦岚 Lan Qin
       利雅博 Albert Lee
       高成生 Chengsheng Gao
       马上又 Shangyou Ma
       赵晓时 Xiaoshi Zhao
       王岩 Yan Wang
       许宏宇 Derek Hui
       韩良 Liang Han
       吕光 Guang Lü
       王秋平 Qiuping Wang
       何俊逸 Joey He
       陆川 Chuan Lu
       李少红 Shaohong Li
       杜军 Jun Du
       钟紫怡 Ziyi Zhong

◎简  介
  本片是为庆祝中国共产党建党九十周年而制作的献礼影片。《建党伟业》 围绕1921年前后展开。该片从1911年辛亥革命爆发开始一直叙述至1921年中国共产党第一次全国代表大会召开为止共10年间中国所发生的一系列重大历史事件,大体上由民初动乱、五四运动及中共建党三部分剧情组成。
  1. ##### MediaInfo ######
  2. General
  3. Unique ID                                : 200870535113943327208025856464855151375 (0x971E4202986E189B27E79D46F176B30F)
  4. Complete name                            : Beginning.of.the.Great.Revival.2011.BluRay.1080p.x265.10bit-MiniHD.mkv
  5. Format                                   : Matroska
  6. Format version                           : Version 4
  7. File size                                : 6.28 GiB
  8. Duration                                 : 2 h 4 min
  9. Overall bit rate                         : 7 209 kb/s
  10. Encoded date                             : UTC 2017-12-25 07:04:53
  11. Writing application                      : mkvmerge v19.0.0 ('Brave Captain') 32-bit
  12. Writing library                          : libebml v1.3.5 + libmatroska v1.4.8
  13. Video
  14. ID                                       : 1
  15. Format                                   : HEVC
  16. Format/Info                              : High Efficiency Video Coding
  17. Format profile                           : Main 10@L4@Main
  18. Codec ID                                 : V_MPEGH/ISO/HEVC
  19. Duration                                 : 2 h 4 min
  20. Bit rate                                 : 6 540 kb/s
  21. Width                                    : 1 920 pixels
  22. Height                                   : 872 pixels
  23. Display aspect ratio                     : 2.2:1
  24. Frame rate mode                          : Constant
  25. Frame rate                               : 23.976 (24000/1001/53354) FPS
  26. Color space                              : YUV
  27. Chroma subsampling                       : 4:2:0
  28. Bit depth                                : 10 bits
  29. Bits/(Pixel*Frame)                       : 0.163
  30. Stream size                              : 5.70 GiB (91%)
  31. Writing library                          : x265 2.5+2-18fa144d453e:[Windows][GCC 7.1.0][64 bit] 10bit
  32. Encoding settings                        : cpuid=533541173503 / frame-threads=3 / numa-pools=8 / wpp / no-pmode / no-pme / no-psnr / no-ssim / log-level=2 / input-csp=1 / input-res=1920x872 / interlace=0 / total-frames=179527 / level-idc=0 / high-tier=1 / uhd-bd=0 / ref=5 / no-allow-non-conformance / no-repeat-headers / annexb / no-aud / no-hrd / info / hash=0 / no-temporal-layers / no-open-gop / min-keyint=1 / keyint=360 / bframes=8 / b-adapt=2 / b-pyramid / bframe-bias=0 / rc-lookahead=40 / lookahead-slices=4 / NTMzNTQ=uuDQuD2mJt9fsCf / scenecut=40 / no-intra-refresh / ctu=32 / min-cu-size=8 / rect / no-amp / max-tu-size=16 / tu-inter-depth=2 / tu-intra-depth=2 / limit-tu=4 / rdoq-level=1 / dynamic-rd=0.00 / ssim-rd / signhide / no-tskip / nr-intra=0 / nr-inter=0 / no-constrained-intra / no-strong-intra-smoothing / max-merge=3 / limit-refs=2 / limit-modes / me=3 / subme=5 / merange=25 / temporal-mvp / weightp / weightb / no-analyze-src-pics / deblock=-1:-1 / no-sao / no-sao-non-deblock / rd=4 / no-early-skip / rskip / no-fast-intra / no-tskip-fast / no-cu-lossless / b-intra / rdpenalty=1 / psy-rd=0.00 / psy-rdoq=3.00 / no-rd-refine / analysis-reuse-mode=0 / no-lossless / cbqpoffs=-2 / crqpoffs=-2 / rc=crf / crf=20.0 / qcomp=0.70 / qpstep=4 / stats-write=0 / stats-read=0 / ipratio=1.40 / pbratio=1.30 / aq-mode=2 / aq-strength=0.80 / cutree / zone-count=0 / no-strict-cbr / qg-size=16 / no-rc-grain / qpmax=69 / qpmin=0 / no-const-vbv / sar=1 / overscan=0 / videoformat=5 / range=0 / colorprim=1 / transfer=2 / colormatrix=2 / chromaloc=0 / display-window=0 / max-cll=0,0 / min-luma=0 / max-luma=1023 / log2-max-poc-lsb=8 / vui-timing-info / vui-hrd-info / slices=1 / opt-qp-pps / opt-ref-list-length-pps / no-multi-pass-opt-rps / scenecut-bias=0.05 / no-opt-cu-delta-qp / no-aq-motion / no-hdr / no-hdr-opt / no-dhdr10-opt / analysis-reuse-level=5 / scale-factor=0 / refine-intra=0 / refine-inter=0 / refine-mv=0 / no-limit-sao / ctu-info=0
  33. Default                                  : Yes
  34. Forced                                   : No
  35. Color range                              : Limited
  36. Color primaries                          : BT.709
  37. Audio
  38. ID                                       : 2
  39. Format                                   : AC-3
  40. Format/Info                              : Audio Coding 3
  41. Commercial name                          : Dolby Digital
  42. Codec ID                                 : A_AC3
  43. Duration                                 : 2 h 4 min
  44. Bit rate mode                            : Constant
  45. Bit rate                                 : 640 kb/s
  46. Channel(s)                               : 6 channels
  47. Channel layout                           : L R C LFE Ls Rs
  48. Sampling rate                            : 48.0 kHz
  49. Frame rate                               : 31.250 FPS (1536 SPF)
  50. Compression mode                         : Lossy
  51. Stream size                              : 571 MiB (9%)
  52. Service kind                             : Complete Main
  53. Default                                  : Yes
  54. Forced                                   : No
  55. Text #1
  56. ID                                       : 3
  57. Format                                   : PGS
  58. Muxing mode                              : zlib
  59. Codec ID                                 : S_HDMV/PGS
  60. Codec ID/Info                            : Picture based subtitle format used on BDs/HD-DVDs
  61. Duration                                 : 1 h 55 min
  62. Bit rate                                 : 25.5 kb/s
  63. Count of elements                        : 2860
  64. Stream size                              : 21.2 MiB (0%)
  65. Title                                    : 简体
  66. Language                                 : Chinese
  67. Default                                  : Yes
  68. Forced                                   : No
  69. Text #2
  70. ID                                       : 4
  71. Format                                   : PGS
  72. Muxing mode                              : zlib
  73. Codec ID                                 : S_HDMV/PGS
  74. Codec ID/Info                            : Picture based subtitle format used on BDs/HD-DVDs
  75. Duration                                 : 1 h 55 min
  76. Bit rate                                 : 26.4 kb/s
  77. Count of elements                        : 2860
  78. Stream size                              : 21.9 MiB (0%)
  79. Title                                    : 繁体
  80. Language                                 : Chinese
  81. Default                                  : No
  82. Forced                                   : No





此处一般会放置磁力链或种子下载链接,不过此链接需要注册会员才能看到,点击“立即注册”
磁力链下载【下载链接仅对注册会员开放,登陆后可见】
BT9527电影天堂 1、BT9527电影天堂提供的BT文件均来源于互联网抓取,只供网友学习交流、技术提升使用。
2、我们遵守BitTorrent点对点协议原则,任何版权问题请联系原资源发布商,我们不处理任何版权纠纷,谢谢!如有争议请联系邮箱:BT9527#hotmail.com(#换成@)
3、如果您发现某页面或地址有错误,请联系站长邮箱BT9527#hotmail.com(#换成@),我们会尽快处理。您的热心是对BT9527电影天堂最大的支持。
4、本站建议去正规影院观看电影以支持电影行业发展。
最新回复 (0)

你可以在 登录 or 注册 后,对此帖发表评论!

返回
发新帖