盲探[国粤多音轨/简繁英字幕].Blind.Detective.2013.BluRay.1080p.x265.10bit.2Audio-MiniHD 4.89GB

版主小s 10天前 33

✔资源类型:暂未分类   ✔电影年份:2013   ✔电影地区:大陆   ✔电影分类:喜剧

◎标  题 盲探
◎译  名 Blind Detective
◎年  代 2013
◎产  地 中国大陆 / 中国香港
◎类  别 喜剧 / 爱情 / 悬疑 / 惊悚 / 犯罪
◎语  言 粤语 / 汉语普通话
◎上映日期 2013-07-04(中国大陆/中国香港) / 2013-05-19(戛纳电影节)
◎IMDb评分 6.4/10 (3161人评价)
◎IMDb链接 https://www.imdb.com/title/tt2332707/
◎豆瓣评分 7.1/10 (202571人评价)
◎豆瓣链接 https://movie.douban.com/subject/6872273/
◎片  长 129分钟
◎导  演 杜琪峰 Johnnie To
◎编  剧 韦家辉 Ka-Fai Wai
       游乃海 Nai-Hoi Yau
       陈伟斌 Ryker Chan
       余曦 Xi Yu
       杜祈知 Kei-Chi To
◎演  员 刘德华 Andy Lau
       郑秀文 Sammi Cheng
       郭涛 Tao Guo
       高圆圆 Yuanyuan Gao
       王紫逸 Ziyi Wang
       郎月婷 Yueting Lang
       卢海鹏 Hoi-Pang Lo
       黄文慧 Man-Wai Wong
       林雪 Suet Lam
       姜皓文 Philip Keung Ho-Man
       陈珈颖 Kerry Chan
       李敏 Ranya Lee
       冼色丽 Seli Xian
       麦长青 Cheung-Ching Mak
       郑可琳 Ruby Cheng
       李泳珊 Rain Lee
       王菀之 Ivana Wong
       佘卓颖 Eva Shi
       吴幸美 Amy Ng
       洪伟良 Wai Leung Hung
       甄懋强 Ronald Yan
       刘浩龙 Wilfred Lau
       何果轩 Guoxuan He
       曾守明 Sau Ming Tsang
       姚莹莹 Eileen Yeow
       李成昌 Shing-Cheung Lee
       秦煌 Wong Chun
       朱咪咪 Mimi Chu
       鲁芬 Fun Lo
       徐志雄 Terence Tsui
       马蹄露 Celine Ma Tai-Lau
       李蔓莹 Renee Li
       詹植芝 Tsim Chlk Chi
       车婉婉 Stephanie Che
       杨受成 Albert Yeung
       宋岱 Dai Song
       林建岳 Peter Lam
       林炳坤 Bingkun Lin
       利雅博 Albert Lee
       李少红 Shaohong Li
       何丽嫦 Lorraine Ho
       杜琪峰 Johnnie To
       郑兆强 Siu-keung Cheng
       余家安 Bruce Yu
       郑保瑞 Pou-Soi Cheang
       佘卓颖 Eva Shi

◎标  签 香港 / 喜剧 / 悬疑 / 犯罪 / 爱情 / 警匪 / 2013 / 搞笑

◎简  介
  曾是“O记”杰出探员的庄士敦(刘德华 饰),四年前因某起案件双目失明,而今眼前一片漆黑的他仍乐此不疲捡起沉疴多年且悬而未决的无头之案调查,在给受害者讨回公道的同时赢得丰厚的悬红报酬。他判案手法独特,擅长在头脑中原原本本还原当事人所处的场景和持有的心情来追查线索。在追查“通渠水伤人事件”疑犯的过程中,庄偶然结识当年“O记”好哥们司徒法宝(郭涛 饰)的下属何家彤(郑秀文 饰)。何虽然办案经验不足,但身手了得,关键时刻救下了正处在危急关头的庄。她对这位名震一时的“破案之神”佩服得五体投地,因此请求庄Sir接手帮忙调查许多年前失踪的好友小敏的下落。                                    
                                看在百万赏金的份上,庄点头应允。在短短十天内,庄Sir和何家彤同时周旋在几宗案件之间,每起案件的真相交替浮出水面,而他们彼此的心也在生死考验的过程中渐渐拉近……
  1. ##### MediaInfo ######
  2. General
  3. Unique ID                                : 132366195849843887309071314651958117150 (0x6394CD5142A3E575F5F87E350C52831E)
  4. Complete name                            : Blind.Detective.2013.BluRay.1080p.x265.10bit.2Audio-MiniHD.mkv
  5. Format                                   : Matroska
  6. Format version                           : Version 4
  7. File size                                : 4.89 GiB
  8. Duration                                 : 2 h 9 min
  9. Overall bit rate                         : 5 396 kb/s
  10. Encoded date                             : UTC 2018-02-21 17:56:28
  11. Writing application                      : mkvmerge v20.0.0 ('I Am The Sun') 64-bit
  12. Writing library                          : libebml v1.3.5 + libmatroska v1.4.8
  13. Video
  14. ID                                       : 1
  15. Format                                   : HEVC
  16. Format/Info                              : High Efficiency Video Coding
  17. Format profile                           : Main 10@L4@Main
  18. Codec ID                                 : V_MPEGH/ISO/HEVC
  19. Duration                                 : 2 h 9 min
  20. Bit rate                                 : 4 008 kb/s
  21. Width                                    : 1 920 pixels
  22. Height                                   : 804 pixels
  23. Display aspect ratio                     : 2.40:1
  24. Frame rate mode                          : Constant
  25. Frame rate                               : 24.000 FPS
  26. Color space                              : YUV
  27. Chroma subsampling                       : 4:2:0
  28. Bit depth                                : 10 bits
  29. Bits/(Pixel*Frame)                       : 0.108
  30. Stream size                              : 3.63 GiB (74%)
  31. Writing library                          : x265 2.6+31-3712d13c09bf:[Windows][MSVC 1912][64 bit] 10bit
  32. Encoding settings                        : cpuid=533541173503 / frame-threads=3 / numa-pools=8 / wpp / no-pmode / no-pme / no-psnr / no-ssim / log-level=2 / csv / csv-log-level=0 / input-csp=1 / input-res=1920x804 / interlace=0 / total-frames=186653 / level-idc=0 / high-tier=1 / uhd-bd=0 / ref=5 / no-allow-non-conformance / no-repeat-headers / annexb / no-aud / no-hrd / info / hash=0 / no-temporal-layers / no-open-gop / min-keyint=1 / keyint=360 / gop-lookahead=0 / bframes=9 / b-adapt=2 / b-pyramid / bframe-bias=0 / rc-lookahead=60 / lookahead-slices=4 / NTMzNTQ=uuDQuD2mJt9fsCf / scenecut=40 / radl=0 / no-intra-refresh / ctu=32 / min-cu-size=8 / rect / no-amp / max-tu-size=16 / tu-inter-depth=2 / tu-intra-depth=2 / limit-tu=4 / rdoq-level=1 / dynamic-rd=0.00 / ssim-rd / signhide / no-tskip / nr-intra=0 / nr-inter=0 / no-constrained-intra / no-strong-intra-smoothing / max-merge=3 / limit-refs=2 / limit-modes / me=3 / subme=5 / merange=25 / temporal-mvp / weightp / weightb / no-analyze-src-pics / deblock=-1:-1 / no-sao / no-sao-non-deblock / rd=4 / no-early-skip / rskip / no-fast-intra / no-tskip-fast / no-cu-lossless / b-intra / no-splitrd-skip / rdpenalty=1 / psy-rd=0.00 / psy-rdoq=5.00 / no-rd-refine / no-lossless / cbqpoffs=-2 / crqpoffs=-2 / rc=crf / crf=19.0 / qcomp=0.70 / qpstep=4 / stats-write=0 / stats-read=0 / ipratio=1.40 / pbratio=1.30 / aq-mode=2 / aq-strength=0.80 / cutree / zone-count=0 / no-strict-cbr / qg-size=16 / no-rc-grain / qpmax=69 / qpmin=0 / no-const-vbv / sar=0 / overscan=0 / videoformat=5 / range=0 / colorprim=1 / transfer=2 / colormatrix=2 / chromaloc=0 / display-window=0 / max-cll=0,0 / min-luma=0 / max-luma=1023 / log2-max-poc-lsb=8 / vui-timing-info / vui-hrd-info / slices=1 / no-opt-qp-pps / no-opt-ref-list-length-pps / no-multi-pass-opt-rps / scenecut-bias=0.05 / no-opt-cu-delta-qp / no-aq-motion / no-hdr / no-hdr-opt / no-dhdr10-opt / analysis-reuse-level=5 / scale-factor=0 / refine-intra=0 / refine-inter=0 / refine-mv=0 / no-limit-sao / ctu-info=0 / no-lowpass-dct / refine-mv-type=0 / copy-pic=1
  33. Language                                 : Chinese
  34. Default                                  : Yes
  35. Forced                                   : No
  36. Color range                              : Limited
  37. Color primaries                          : BT.709
  38. Audio #1
  39. ID                                       : 2
  40. Format                                   : AC-3
  41. Format/Info                              : Audio Coding 3
  42. Commercial name                          : Dolby Digital
  43. Codec ID                                 : A_AC3
  44. Duration                                 : 2 h 9 min
  45. Bit rate mode                            : Constant
  46. Bit rate                                 : 640 kb/s
  47. Channel(s)                               : 6 channels
  48. Channel layout                           : L R C LFE Ls Rs
  49. Sampling rate                            : 48.0 kHz
  50. Frame rate                               : 31.250 FPS (1536 SPF)
  51. Compression mode                         : Lossy
  52. Stream size                              : 593 MiB (12%)
  53. Title                                    : 粤语
  54. Language                                 : Chinese
  55. Service kind                             : Complete Main
  56. Default                                  : Yes
  57. Forced                                   : No
  58. Audio #2
  59. ID                                       : 3
  60. Format                                   : AC-3
  61. Format/Info                              : Audio Coding 3
  62. Commercial name                          : Dolby Digital
  63. Codec ID                                 : A_AC3
  64. Duration                                 : 2 h 9 min
  65. Bit rate mode                            : Constant
  66. Bit rate                                 : 640 kb/s
  67. Channel(s)                               : 6 channels
  68. Channel layout                           : L R C LFE Ls Rs
  69. Sampling rate                            : 48.0 kHz
  70. Frame rate                               : 31.250 FPS (1536 SPF)
  71. Compression mode                         : Lossy
  72. Stream size                              : 593 MiB (12%)
  73. Title                                    : 国语
  74. Language                                 : Chinese
  75. Service kind                             : Complete Main
  76. Default                                  : No
  77. Forced                                   : No
  78. Text #1
  79. ID                                       : 4
  80. Format                                   : PGS
  81. Muxing mode                              : zlib
  82. Codec ID                                 : S_HDMV/PGS
  83. Codec ID/Info                            : Picture based subtitle format used on BDs/HD-DVDs
  84. Title                                    : 英文
  85. Language                                 : English
  86. Default                                  : No
  87. Forced                                   : No
  88. Text #2
  89. ID                                       : 5
  90. Format                                   : PGS
  91. Muxing mode                              : zlib
  92. Codec ID                                 : S_HDMV/PGS
  93. Codec ID/Info                            : Picture based subtitle format used on BDs/HD-DVDs
  94. Title                                    : 简体
  95. Language                                 : Chinese
  96. Default                                  : No
  97. Forced                                   : No
  98. Text #3
  99. ID                                       : 6
  100. Format                                   : PGS
  101. Muxing mode                              : zlib
  102. Codec ID                                 : S_HDMV/PGS
  103. Codec ID/Info                            : Picture based subtitle format used on BDs/HD-DVDs
  104. Title                                    : 繁体
  105. Language                                 : Chinese
  106. Default                                  : Yes
  107. Forced                                   : No
  108. Menu
  109. 00:00:00.000                             : en:Chapter 01
  110. 00:07:04.500                             : en:Chapter 02
  111. 00:14:04.750                             : en:Chapter 03
  112. 00:17:58.291                             : en:Chapter 04
  113. 00:28:47.375                             : en:Chapter 05
  114. 00:34:18.708                             : en:Chapter 06
  115. 00:39:54.500                             : en:Chapter 07
  116. 00:46:30.500                             : en:Chapter 08
  117. 00:52:18.291                             : en:Chapter 09
  118. 00:56:58.666                             : en:Chapter 10
  119. 01:05:31.375                             : en:Chapter 11
  120. 01:11:26.291                             : en:Chapter 12
  121. 01:18:12.458                             : en:Chapter 13
  122. 01:25:37.750                             : en:Chapter 14
  123. 01:32:00.041                             : en:Chapter 15
  124. 01:39:13.083                             : en:Chapter 16
  125. 01:46:16.750                             : en:Chapter 17
  126. 01:49:36.916                             : en:Chapter 18
  127. 01:55:09.500                             : en:Chapter 19
  128. 02:06:34.333                             : en:Chapter 20





此处一般会放置磁力链或种子下载链接,不过此链接需要注册会员才能看到,点击“立即注册”
磁力链下载【下载链接仅对注册会员开放,登陆后可见】
BT9527电影天堂 1、BT9527电影天堂提供的BT文件均来源于互联网抓取,只供网友学习交流、技术提升使用。
2、我们遵守BitTorrent点对点协议原则,任何版权问题请联系原资源发布商,我们不处理任何版权纠纷,谢谢!如有争议请联系邮箱:BT9527#hotmail.com(#换成@)
3、如果您发现某页面或地址有错误,请联系站长邮箱BT9527#hotmail.com(#换成@),我们会尽快处理。您的热心是对BT9527电影天堂最大的支持。
4、本站建议去正规影院观看电影以支持电影行业发展。
最新回复 (0)

你可以在 登录 or 注册 后,对此帖发表评论!

返回
发新帖