白蛇传说[国粤多音轨/简繁英字幕].The.Sorcerer.and.the.White.Snake.2011.BluRay.1080p.x265.10bit.2Audio-MiniHD 4.16GB

版主小s 1天前 14

✔资源类型:暂未分类   ✔电影年份:2011   ✔电影地区:大陆   ✔电影分类:动作

◎标  题 白蛇传说
◎译  名 法海:白蛇传说(台) / 白蛇传说之法海(港) / ‎法海 / Its love / The Sorcerer and the White Snake
◎年  代 2011
◎产  地 中国大陆
◎类  别 动作 / 爱情 / 奇幻 / 古装
◎语  言 汉语普通话 / 粤语
◎上映日期 2011-09-28(中国大陆)
◎IMDb评分 5.8/10 (8551人评价)
◎IMDb链接 https://www.imdb.com/title/tt1857913/
◎豆瓣评分 4.8/10 (108982人评价)
◎豆瓣链接 https://movie.douban.com/subject/4942778/
◎片  长 103分钟
◎导  演 程小东 Siu-Tung Ching
◎编  剧 张炭 Cheung Tan
       曾瑾昌 Kan-Cheung Tsang
       司徒卓汉 Chuek-Hon Szeto
◎演  员 李连杰 Jet Li
       黄圣依 Eva Huang
       林峯 Raymond Lam
       蔡卓妍 Charlene Choi
       文章 Zhang Wen
       姜武 Wu Jiang
       杨千嬅 Miriam Yeung
       罗家英 Kar-Ying Law
       郭羡妮 Sonija Kwok
       林雪 Suet Lam
       郑保瑞 Pou-Soi Cheang
       洪杰 Alex Hong
       姜冰洁 Bingjie Jiang
       汤盈盈 Angela Tong
       王一楠 Yinan Wang
       孔宋今 Songjin Kong
       王林 Lin Wang
       邢思杰 Alfred Hsing
       韩栋 Dong Han
       黄洪 Huang Hong
       雷颂德 Mark Lui
       林安儿 Angie Lam
       翟韬 Tao Zhai
       贾雪 Xue Jia
       张叔平 William Chang
       罗伟豪 Wai-ho Law
       陈迪凯 Water Chan Tik-Hoi
       柳希姃

◎简  介
  南宋年间,世道离乱,更有各方妖孽为害世间,亦有痴情种子因缘和合,演出千古传奇。某深山老林,一青一白二蛇修炼千年,化得人身,终日在山中畅意游玩,好不自在。二蛇偶遇上山采药的郎中许仙(林峰 饰),白蛇(黄圣依 饰)倾慕许仙,并偶然救得他的性命,自此凡心触动,决定下山寻找心上之人。适逢佳节,二蛇变作人形,以白素贞、青青(蔡卓妍 饰)之名来到城中。正所谓因缘际会,白素贞终与许仙相逢,结为夫妇。                                    
                                时有金山寺高僧法海(李连杰 饰)携弟子能忍(文章 饰)四方游历,降妖除魔。追寻二蛇期间,能忍为蝙蝠妖所伤,魔性大起,坚心动摇。其后师徒二人更与白素贞、青青二蛇上演正法与情缘的亘古纠葛……
  1. ##### MediaInfo ######
  2. General
  3. Unique ID                                : 140279084989644441191536758071052580699 (0x6988C4DF7F0051986DB5D31DDCA5B75B)
  4. Complete name                            : The.Sorcerer.and.the.White.Snake.2011.BluRay.1080p.x265.10bit.2Audio-MiniHD.mkv
  5. Format                                   : Matroska
  6. Format version                           : Version 4
  7. File size                                : 4.16 GiB
  8. Duration                                 : 1 h 33 min
  9. Overall bit rate                         : 6 344 kb/s
  10. Encoded date                             : UTC 2018-04-12 10:33:49
  11. Writing application                      : mkvmerge v20.0.0 ('I Am The Sun') 64-bit
  12. Writing library                          : libebml v1.3.5 + libmatroska v1.4.8
  13. Video
  14. ID                                       : 1
  15. Format                                   : HEVC
  16. Format/Info                              : High Efficiency Video Coding
  17. Format profile                           : Main 10@L4@Main
  18. Codec ID                                 : V_MPEGH/ISO/HEVC
  19. Duration                                 : 1 h 33 min
  20. Bit rate                                 : 5 386 kb/s
  21. Width                                    : 1 920 pixels
  22. Height                                   : 822 pixels
  23. Display aspect ratio                     : 2.35:1
  24. Frame rate mode                          : Constant
  25. Frame rate                               : 23.976 (24000/1001/53354) FPS
  26. Color space                              : YUV
  27. Chroma subsampling                       : 4:2:0
  28. Bit depth                                : 10 bits
  29. Bits/(Pixel*Frame)                       : 0.142
  30. Stream size                              : 3.53 GiB (85%)
  31. Writing library                          : x265 2.7+1-2aa737a99f51:[Windows][GCC 7.3.0][64 bit] 10bit
  32. Encoding settings                        : cpuid=533541173503 / frame-threads=3 / numa-pools=8 / wpp / no-pmode / no-pme / no-psnr / no-ssim / log-level=2 / csv / csv-log-level=0 / input-csp=1 / input-res=1920x822 / interlace=0 / total-frames=134919 / level-idc=0 / high-tier=1 / uhd-bd=0 / ref=5 / no-allow-non-conformance / no-repeat-headers / annexb / no-aud / no-hrd / info / hash=0 / no-temporal-layers / no-open-gop / min-keyint=1 / keyint=360 / gop-lookahead=0 / bframes=9 / b-adapt=2 / b-pyramid / bframe-bias=0 / rc-lookahead=60 / lookahead-slices=4 / NTMzNTQ=uuDQuD2mJt9fsCf / scenecut=40 / radl=0 / no-intra-refresh / ctu=32 / min-cu-size=8 / rect / no-amp / max-tu-size=16 / tu-inter-depth=2 / tu-intra-depth=2 / limit-tu=4 / rdoq-level=1 / dynamic-rd=0.00 / ssim-rd / signhide / no-tskip / nr-intra=0 / nr-inter=0 / no-constrained-intra / no-strong-intra-smoothing / max-merge=3 / limit-refs=2 / limit-modes / me=3 / subme=5 / merange=25 / temporal-mvp / weightp / weightb / no-analyze-src-pics / deblock=-1:-1 / no-sao / no-sao-non-deblock / rd=4 / no-early-skip / rskip / no-fast-intra / no-tskip-fast / no-cu-lossless / b-intra / no-splitrd-skip / rdpenalty=1 / psy-rd=0.00 / psy-rdoq=5.00 / no-rd-refine / no-lossless / cbqpoffs=-2 / crqpoffs=-2 / rc=crf / crf=19.0 / qcomp=0.70 / qpstep=4 / stats-write=0 / stats-read=0 / ipratio=1.40 / pbratio=1.30 / aq-mode=2 / aq-strength=0.80 / cutree / zone-count=0 / no-strict-cbr / qg-size=16 / no-rc-grain / qpmax=69 / qpmin=0 / no-const-vbv / sar=0 / overscan=0 / videoformat=5 / range=0 / colorprim=1 / transfer=2 / colormatrix=2 / chromaloc=0 / display-window=0 / max-cll=0,0 / min-luma=0 / max-luma=1023 / log2-max-poc-lsb=8 / vui-timing-info / vui-hrd-info / slices=1 / no-opt-qp-pps / no-opt-ref-list-length-pps / no-multi-pass-opt-rps / scenecut-bias=0.05 / no-opt-cu-delta-qp / no-aq-motion / no-hdr / no-hdr-opt / no-dhdr10-opt / analysis-reuse-level=5 / scale-factor=0 / refine-intra=0 / refine-inter=0 / refine-mv=0 / no-limit-sao / ctu-info=0 / no-lowpass-dct / refine-mv-type=0 / copy-pic=1
  33. Language                                 : Chinese
  34. Default                                  : Yes
  35. Forced                                   : No
  36. Color range                              : Limited
  37. Color primaries                          : BT.709
  38. Audio #1
  39. ID                                       : 2
  40. Format                                   : AC-3
  41. Format/Info                              : Audio Coding 3
  42. Commercial name                          : Dolby Digital
  43. Codec ID                                 : A_AC3
  44. Duration                                 : 1 h 33 min
  45. Bit rate mode                            : Constant
  46. Bit rate                                 : 192 kb/s
  47. Channel(s)                               : 2 channels
  48. Channel layout                           : L R
  49. Sampling rate                            : 48.0 kHz
  50. Frame rate                               : 31.250 FPS (1536 SPF)
  51. Compression mode                         : Lossy
  52. Stream size                              : 129 MiB (3%)
  53. Title                                    : 粤语
  54. Language                                 : Chinese
  55. Service kind                             : Complete Main
  56. Default                                  : Yes
  57. Forced                                   : No
  58. Audio #2
  59. ID                                       : 3
  60. Format                                   : AC-3
  61. Format/Info                              : Audio Coding 3
  62. Commercial name                          : Dolby Digital
  63. Codec ID                                 : A_AC3
  64. Duration                                 : 1 h 33 min
  65. Bit rate mode                            : Constant
  66. Bit rate                                 : 640 kb/s
  67. Channel(s)                               : 6 channels
  68. Channel layout                           : L R C LFE Ls Rs
  69. Sampling rate                            : 48.0 kHz
  70. Frame rate                               : 31.250 FPS (1536 SPF)
  71. Compression mode                         : Lossy
  72. Stream size                              : 429 MiB (10%)
  73. Title                                    : 国语
  74. Language                                 : Chinese
  75. Service kind                             : Complete Main
  76. Default                                  : No
  77. Forced                                   : No
  78. Text #1
  79. ID                                       : 4
  80. Format                                   : PGS
  81. Muxing mode                              : zlib
  82. Codec ID                                 : S_HDMV/PGS
  83. Codec ID/Info                            : Picture based subtitle format used on BDs/HD-DVDs
  84. Title                                    : 繁体
  85. Language                                 : Chinese
  86. Default                                  : Yes
  87. Forced                                   : No
  88. Text #2
  89. ID                                       : 5
  90. Format                                   : PGS
  91. Muxing mode                              : zlib
  92. Codec ID                                 : S_HDMV/PGS
  93. Codec ID/Info                            : Picture based subtitle format used on BDs/HD-DVDs
  94. Title                                    : 简体
  95. Language                                 : Chinese
  96. Default                                  : No
  97. Forced                                   : No
  98. Text #3
  99. ID                                       : 6
  100. Format                                   : PGS
  101. Muxing mode                              : zlib
  102. Codec ID                                 : S_HDMV/PGS
  103. Codec ID/Info                            : Picture based subtitle format used on BDs/HD-DVDs
  104. Title                                    : 英文
  105. Language                                 : English
  106. Default                                  : No
  107. Forced                                   : No
  108. Menu
  109. 00:00:00.000                             : en:Chapter 01
  110. 00:08:13.201                             : en:Chapter 02
  111. 00:15:29.428                             : en:Chapter 03
  112. 00:24:03.316                             : en:Chapter 04
  113. 00:30:57.355                             : en:Chapter 05
  114. 00:37:10.937                             : en:Chapter 06
  115. 00:43:41.118                             : en:Chapter 07
  116. 00:48:50.010                             : en:Chapter 08
  117. 01:01:07.747                             : en:Chapter 09
  118. 01:11:13.185                             : en:Chapter 10
  119. 01:19:03.029                             : en:Chapter 11
  120. 01:27:24.530                             : en:Chapter 12





此处一般会放置磁力链或种子下载链接,不过此链接需要注册会员才能看到,点击“立即注册”
磁力链下载【下载链接仅对注册会员开放,登陆后可见】
BT9527电影天堂 1、BT9527电影天堂提供的BT文件均来源于互联网抓取,只供网友学习交流、技术提升使用。
2、我们遵守BitTorrent点对点协议原则,任何版权问题请联系原资源发布商,我们不处理任何版权纠纷,谢谢!如有争议请联系邮箱:BT9527#hotmail.com(#换成@)
3、如果您发现某页面或地址有错误,请联系站长邮箱BT9527#hotmail.com(#换成@),我们会尽快处理。您的热心是对BT9527电影天堂最大的支持。
4、本站建议去正规影院观看电影以支持电影行业发展。
最新回复 (0)

你可以在 登录 or 注册 后,对此帖发表评论!

返回
发新帖