新哥斯拉[中文字幕].Shin.Godzilla.2016.BluRay.1080p.x265.10bit.HDR10-MiniHD 3.29GB

版主小s 3月前 255

✔资源类型:暂未分类   ✔电影年份:2016   ✔电影地区:日本   ✔电影分类:剧情

◎标  题 新哥斯拉
◎译  名 真・哥斯拉(港) / 正宗哥吉拉(台) / 新哥斯拉·东京陷落 / 哥斯拉:复活 / 新·哥斯拉 / 新哥吉拉 / Godzilla Resurgence / Shin Godzilla
◎片  名 シン・ゴジラ
◎年  代 2016
◎产  地 日本
◎类  别 剧情 / 科幻 / 灾难
◎语  言 日语 / 英语
◎上映日期 2016-07-29(日本)
◎IMDb评分 6.8/10 (26322人评价)
◎IMDb链接 https://www.imdb.com/title/tt4262980/
◎豆瓣评分 6.7/10 (41121人评价)
◎豆瓣链接 https://movie.douban.com/subject/26279124/
◎片  长 120分钟
◎导  演 庵野秀明 Hideaki Anno
       樋口真嗣 Shinji Higuchi
◎编  剧 庵野秀明 Hideaki Anno
       本多猪四郎  Ishirô Honda
◎演  员 长谷川博己 Hiroki Hasegawa
       竹野内丰 Yutaka Takenouchi
       石原里美 Satomi Ishihara
       高良健吾 Kengo Kora
       大杉涟 Ren Ohsugi
       柄本明 Akira Emoto
       余贵美子 Kimiko Yo
       市川实日子 Mikako Ichikawa
       国村隼 Jun Kunimura
       平泉成 Sei Hiraizumi
       松尾谕 Satoru Matsuo
       渡边哲 Tetsu Watanabe
       中村育二 Ikuji Nakamura
       矢岛健一 Kenichi Yajima
       津田宽治 Kanji Tsuda
       冢本晋也 Shinya Tsukamoto
       高桥一生 Issey Takahashi
       光石研 Ken Mitsuishi
       古田新太 Arata Furuta
       松尾铃木 Suzuki Matsuo
       鹤见辰吾 Shingo Tsurumi
       泷正则 Pierre Taki
       片桐入 Hairi Katagiri
       小出惠介 Keisuke Koide
       斋藤工 Takumi Saitô
       前田敦子 Atsuko Maeda
       手塚通 Toru Tezuka
       野间口彻 Tôru Nomaguchi
       黑田大辅 Daisuke Kuroda
       桥本润 Jun Hashimoto
       小林隆 Takashi Kobayashi
       诹访太朗 Tarô Suwa
       藤木孝 Takashi Fujiki
       岛田久作 Kyûsaku Shimada
       神尾佑 Yû Kamio
       三浦贵大 Takahiro Miura
       茂吕师冈 Moro Morooka
       犬童一心 Isshin Inudou
       原一男 Kazuo Hara
       绪方明 Akira Ogata
       石垣佑磨 Yuma Ishigaki
       野村万斋 Mansai Nomura
       浜田晃 Akira Hamada
       佐藤贡三 Kôzô Satô
       原知佐子 Chisako Hara
       手冢弘道 Tezuka Hiromichi
       古川慎 Makoto Furukawa
       大塚弘太 Hirota Otsuka
       加藤厚成 Kousei Kato
       吉田乌龙太 Oolongta Yoshida
       庵野秀明 Hideaki Anno
       杉原枝利香 Erika Sugihara

◎标  签 日本 / 哥斯拉 / 科幻 / 灾难 / 怪兽 / 2016 / 政治 / 特摄

◎简  介
    平静的东京湾突然发生海难,当人们还在猜想是否海底火山爆发时,一只巨大的怪兽冒出水面并登陆城区。日本政府主导成立了“巨大不明生物灾害部”,网罗了国家中的奇人异士加盟,研究发现怪兽是受到放射性污染而诞生出来的,命名为哥斯拉;尝试了各种办法均宣告失败的“灾害部”最后不得不决定对哥斯拉采取武装攻击。但是这个巨大的怪兽哥斯拉完成了更恐怖的进化,整个东京将要沦为一片人间地狱,一场人类与怪兽的最终决战即将到来……                                    
                                  该片是2017年日本票房突破80亿的日本真人电影,并横扫第40届日本电影学院七项大奖;片中的怪兽也被称为整个哥斯拉系列中“最大版本”。
  1. ##### MediaInfo ######
  2. General
  3. Unique ID                                : 267685303874202836673765934819501910320 (0xC96250720E9A7463FDA58943EFE7A930)
  4. Complete name                            : Shin.Godzilla.2016.BluRay.1080p.x265.10bit.HDR10-MiniHD.mkv
  5. Format                                   : Matroska
  6. Format version                           : Version 4
  7. File size                                : 3.29 GiB
  8. Duration                                 : 1 h 59 min
  9. Overall bit rate                         : 3 936 kb/s
  10. Encoded date                             : UTC 2018-02-10 05:46:53
  11. Writing application                      : mkvmerge v20.0.0 ('I Am The Sun') 64-bit
  12. Writing library                          : libebml v1.3.5 + libmatroska v1.4.8
  13. Video
  14. ID                                       : 1
  15. Format                                   : HEVC
  16. Format/Info                              : High Efficiency Video Coding
  17. Format profile                           : Main 10@L4@High
  18. Codec ID                                 : V_MPEGH/ISO/HEVC
  19. Duration                                 : 1 h 59 min
  20. Bit rate                                 : 3 269 kb/s
  21. Width                                    : 1 920 pixels
  22. Height                                   : 804 pixels
  23. Display aspect ratio                     : 2.40:1
  24. Frame rate mode                          : Constant
  25. Frame rate                               : 23.976 (24000/1001/53354) FPS
  26. Color space                              : YUV
  27. Chroma subsampling                       : 4:2:0 (Type 2)
  28. Bit depth                                : 10 bits
  29. Bits/(Pixel*Frame)                       : 0.088
  30. Stream size                              : 2.74 GiB (83%)
  31. Writing library                          : x265 2.6+37-1949157705ce:[Windows][MSVC 1900][64 bit] 10bit
  32. Encoding settings                        : cpuid=533541173503 / frame-threads=2 / numa-pools=4 / wpp / no-pmode / no-pme / no-psnr / no-ssim / log-level=2 / input-csp=1 / input-res=1920x804 / interlace=0 / total-frames=172392 / level-idc=0 / high-tier=1 / uhd-bd=0 / ref=5 / no-allow-non-conformance / repeat-headers / annexb / aud / hrd / info / hash=0 / no-temporal-layers / no-open-gop / min-keyint=1 / keyint=360 / gop-lookahead=0 / bframes=8 / b-adapt=2 / b-pyramid / bframe-bias=0 / rc-lookahead=60 / lookahead-slices=4 / NTMzNTQ=uuDQuD2mJt9fsCf / scenecut=40 / radl=0 / no-intra-refresh / ctu=32 / min-cu-size=8 / no-rect / no-amp / max-tu-size=32 / tu-inter-depth=2 / tu-intra-depth=2 / limit-tu=4 / rdoq-level=2 / dynamic-rd=0.00 / ssim-rd / signhide / no-tskip / nr-intra=0 / nr-inter=0 / no-constrained-intra / no-strong-intra-smoothing / max-merge=3 / limit-refs=2 / limit-modes / me=3 / subme=5 / merange=25 / temporal-mvp / weightp / weightb / no-analyze-src-pics / deblock=-1:-1 / no-sao / no-sao-non-deblock / rd=4 / no-early-skip / no-rskip / no-fast-intra / no-tskip-fast / no-cu-lossless / b-intra / no-splitrd-skip / rdpenalty=1 / psy-rd=0.00 / psy-rdoq=5.00 / no-rd-refine / no-lossless / cbqpoffs=-3 / crqpoffs=-3 / rc=crf / crf=15.0 / qcomp=0.70 / qpstep=4 / stats-write=0 / stats-read=0 / vbv-maxrate=28000 / vbv-bufsize=30000 / vbv-init=0.9 / crf-max=0.0 / crf-min=0.0 / ipratio=1.40 / pbratio=1.30 / aq-mode=3 / aq-strength=0.90 / cutree / zone-count=0 / no-strict-cbr / qg-size=32 / no-rc-grain / qpmax=69 / qpmin=0 / no-const-vbv / sar=0 / overscan=0 / videoformat=5 / range=0 / colorprim=9 / transfer=16 / colormatrix=9 / chromaloc=1 / chromaloc-top=2 / chromaloc-bottom=2 / display-window=0 / max-cll=0,0 / min-luma=0 / max-luma=1023 / log2-max-poc-lsb=8 / vui-timing-info / vui-hrd-info / slices=1 / no-opt-qp-pps / no-opt-ref-list-length-pps / no-multi-pass-opt-rps / scenecut-bias=0.05 / no-opt-cu-delta-qp / no-aq-motion / hdr / hdr-opt / no-dhdr10-opt / analysis-reuse-level=5 / scale-factor=0 / refine-intra=0 / refine-inter=0 / refine-mv=0 / no-limit-sao / ctu-info=0 / no-lowpass-dct / refine-mv-type=0 / copy-pic=1
  33. Default                                  : Yes
  34. Forced                                   : No
  35. Color range                              : Limited
  36. Color primaries                          : BT.2020
  37. Transfer characteristics                 : PQ
  38. Matrix coefficients                      : BT.2020 non-constant
  39. Audio
  40. ID                                       : 2
  41. Format                                   : AC-3
  42. Format/Info                              : Audio Coding 3
  43. Commercial name                          : Dolby Digital
  44. Codec ID                                 : A_AC3
  45. Duration                                 : 1 h 59 min
  46. Bit rate mode                            : Constant
  47. Bit rate                                 : 640 kb/s
  48. Channel(s)                               : 4 channels
  49. Channel layout                           : L R C LFE
  50. Sampling rate                            : 48.0 kHz
  51. Frame rate                               : 31.250 FPS (1536 SPF)
  52. Compression mode                         : Lossy
  53. Stream size                              : 549 MiB (16%)
  54. Language                                 : Japanese
  55. Service kind                             : Complete Main
  56. Default                                  : Yes
  57. Forced                                   : No
  58. Text
  59. ID                                       : 3
  60. Format                                   : PGS
  61. Muxing mode                              : zlib
  62. Codec ID                                 : S_HDMV/PGS
  63. Codec ID/Info                            : Picture based subtitle format used on BDs/HD-DVDs
  64. Duration                                 : 1 h 53 min
  65. Bit rate                                 : 41.4 kb/s
  66. Count of elements                        : 2702
  67. Stream size                              : 33.6 MiB (1%)
  68. Language                                 : Chinese
  69. Default                                  : Yes
  70. Forced                                   : No
  71. Menu
  72. 00:00:00.000                             : en:00:00:00.000
  73. 00:00:11.136                             : en:00:00:11.136
  74. 00:00:23.523                             : en:00:00:23.523
  75. 00:00:27.319                             : en:00:00:27.319
  76. 00:00:31.615                             : en:00:00:31.615
  77. 00:14:50.973                             : en:00:14:50.973
  78. 00:23:54.433                             : en:00:23:54.433
  79. 00:25:18.725                             : en:00:25:18.725
  80. 00:27:48.000                             : en:00:27:48.000
  81. 00:29:32.104                             : en:00:29:32.104
  82. 00:31:36.978                             : en:00:31:36.978
  83. 00:40:39.562                             : en:00:40:39.562
  84. 00:47:19.879                             : en:00:47:19.879
  85. 00:49:01.230                             : en:00:49:01.230
  86. 00:51:43.517                             : en:00:51:43.517
  87. 00:54:27.055                             : en:00:54:27.055
  88. 00:59:40.243                             : en:00:59:40.243
  89. 01:04:09.262                             : en:01:04:09.262
  90. 01:07:20.703                             : en:01:07:20.703
  91. 01:13:54.555                             : en:01:13:54.555
  92. 01:23:25.959                             : en:01:23:25.959
  93. 01:29:38.790                             : en:01:29:38.790
  94. 01:36:44.757                             : en:01:36:44.757
  95. 01:40:24.435                             : en:01:40:24.435
  96. 01:44:21.338                             : en:01:44:21.338
  97. 01:46:03.690                             : en:01:46:03.690
  98. 01:49:20.887                             : en:01:49:20.887
  99. 01:53:42.273                             : en:01:53:42.273
  100. 01:59:39.047                             : en:01:59:39.047





此处一般会放置磁力链或种子下载链接,不过此链接需要注册会员才能看到,点击“立即注册”
磁力链下载【下载链接仅对注册会员开放,登陆后可见】
BT9527电影天堂 1、BT9527电影天堂提供的BT文件均来源于互联网抓取,只供网友学习交流、技术提升使用。
2、我们遵守BitTorrent点对点协议原则,任何版权问题请联系原资源发布商,我们不处理任何版权纠纷,谢谢!如有争议请联系邮箱:BT9527#hotmail.com(#换成@)
3、如果您发现某页面或地址有错误,请联系站长邮箱BT9527#hotmail.com(#换成@),我们会尽快处理。您的热心是对BT9527电影天堂最大的支持。
4、本站建议去正规影院观看电影以支持电影行业发展。
最新回复 (0)

你可以在 登录 or 注册 后,对此帖发表评论!

返回
发新帖