我的P.S.搭档[中英字幕].My.PS.Partner.2012.BluRay.1080p.x265.10bit-MiniHD 4.70GB

版主小s 7天前 169

✔资源类型:暂未分类   ✔电影年份:2012   ✔电影地区:韩国   ✔电影分类:喜剧

◎标  题 我的P.S.搭档
◎译  名 我爱疯Sex(港) / 我的PS搭档 / 我的电话情人 / My P.S. Partner / Whatcha Wearin’ / Na-eui PS pa-teu-neo
◎片  名 나의 PS 파트너
◎年  代 2012
◎产  地 韩国
◎类  别 喜剧 / 爱情
◎语  言 韩语
◎上映日期 2013-02-21(中国香港) / 2012-12-06(韩国)
◎IMDb评分 6.8/10 (2490人评价)
◎IMDb链接 https://www.imdb.com/title/tt2592336/
◎豆瓣评分 7.1/10 (55264人评价)
◎豆瓣链接 https://movie.douban.com/subject/10491641/
◎片  长 114分钟
◎导  演 卞成贤 Sung-hyun Byun
◎编  剧 卞成贤 Sung-hyun Byun
       金秀雅 Soo-ah Kim
◎演  员 金雅中 Ah-jung Kim
       池晟 Seong Ji
       申素率 So-yul Shin
       金成伍 Seong-oh Kim
       姜京俊 Kyung-joon Kang
       文知允 Ji-yoon Moon
       金周灵 Joo-ryeong Kim
        
       金甫美 Bo-mi Kim
       李才元 Jea-woo Lee
       郭智敏 Ji-min Kwak
       金尚范 Sang-bum Kim

◎简  介
  这里的PS并不是指观众所熟悉的“Photoshop”,而是很隐晦的“Phone Sex”。                                    
                                一心想要成为一名创作歌手贤胜(池城 饰),得知前女友找到了高帅富新男友后,大受刺激,夜夜不能眠。自卑寂寞感马上爆发,在翻来覆去睡不着觉的某个晚上,他接到一通奇怪的“色情”电话。外貌号称完美的允静(金雅中 饰)却总是个觉得缺乏男友爱护的女子,于是某一天她为了企图挽回交往了5年的男友的心,使用“性趣”准备了小惊喜,用暧昧的语调和对方说出刺激感官的诱人台词,哪知道按错了号码,电话接听的那头正是陌生人贤胜。两个内心受伤的男女在互相恶作剧中逐渐敞开心扉……
  1. ##### MediaInfo ######
  2. General
  3. Unique ID                                : 177370734110381031682398134154140080375 (0x85705C5DEBA52E9891F80675114058F7)
  4. Complete name                            : My.PS.Partner.2012.BluRay.1080p.x265.10bit-MiniHD.mkv
  5. Format                                   : Matroska
  6. Format version                           : Version 4
  7. File size                                : 4.70 GiB
  8. Duration                                 : 1 h 54 min
  9. Overall bit rate                         : 5 885 kb/s
  10. Encoded date                             : UTC 2018-06-23 18:27:16
  11. Writing application                      : mkvmerge v18.0.0 ('Apricity') 64-bit
  12. Writing library                          : libebml v1.3.5 + libmatroska v1.4.8
  13. Video
  14. ID                                       : 1
  15. Format                                   : HEVC
  16. Format/Info                              : High Efficiency Video Coding
  17. Format profile                           : Main 10@L4@Main
  18. Codec ID                                 : V_MPEGH/ISO/HEVC
  19. Duration                                 : 1 h 54 min
  20. Bit rate                                 : 5 210 kb/s
  21. Width                                    : 1 920 pixels
  22. Height                                   : 804 pixels
  23. Display aspect ratio                     : 2.40:1
  24. Frame rate mode                          : Constant
  25. Frame rate                               : 24.000 FPS
  26. Color space                              : YUV
  27. Chroma subsampling                       : 4:2:0
  28. Bit depth                                : 10 bits
  29. Bits/(Pixel*Frame)                       : 0.141
  30. Stream size                              : 4.16 GiB (89%)
  31. Writing library                          : x265 2.8+1-478bfe2b7673:[Windows][GCC 7.3.0][64 bit] 10bit
  32. Encoding settings                        : cpuid=533541111039 / frame-threads=3 / numa-pools=8 / wpp / no-pmode / no-pme / no-psnr / no-ssim / log-level=2 / csv / csv-log-level=0 / input-csp=1 / input-res=1920x804 / interlace=0 / total-frames=164713 / level-idc=0 / high-tier=1 / uhd-bd=0 / ref=5 / no-allow-non-conformance / no-repeat-headers / annexb / no-aud / no-hrd / info / hash=0 / no-temporal-layers / no-open-gop / min-keyint=1 / keyint=360 / gop-lookahead=0 / bframes=8 / b-adapt=2 / b-pyramid / bframe-bias=0 / rc-lookahead=40 / lookahead-slices=4 / NTMzNTQ=uuDQuD2mJt9fsCf / scenecut=40 / radl=0 / no-intra-refresh / ctu=32 / min-cu-size=8 / rect / no-amp / max-tu-size=16 / tu-inter-depth=2 / tu-intra-depth=2 / limit-tu=4 / rdoq-level=1 / dynamic-rd=0.00 / ssim-rd / signhide / no-tskip / nr-intra=0 / nr-inter=0 / no-constrained-intra / no-strong-intra-smoothing / max-merge=3 / limit-refs=2 / limit-modes / me=3 / subme=5 / merange=25 / temporal-mvp / weightp / weightb / no-analyze-src-pics / deblock=-1:-1 / no-sao / no-sao-non-deblock / rd=4 / no-early-skip / rskip / no-fast-intra / no-tskip-fast / no-cu-lossless / b-intra / no-splitrd-skip / rdpenalty=1 / psy-rd=0.00 / psy-rdoq=5.00 / no-rd-refine / no-lossless / cbqpoffs=-2 / crqpoffs=-2 / rc=crf / crf=18.0 / qcomp=0.65 / qpstep=4 / stats-write=0 / stats-read=0 / ipratio=1.40 / pbratio=1.30 / aq-mode=2 / aq-strength=0.80 / cutree / zone-count=0 / no-strict-cbr / qg-size=16 / no-rc-grain / qpmax=69 / qpmin=0 / no-const-vbv / sar=0 / overscan=0 / videoformat=5 / range=0 / colorprim=1 / transfer=2 / colormatrix=2 / chromaloc=0 / display-window=0 / max-cll=0,0 / min-luma=0 / max-luma=1023 / log2-max-poc-lsb=8 / vui-timing-info / vui-hrd-info / slices=1 / no-opt-qp-pps / no-opt-ref-list-length-pps / no-multi-pass-opt-rps / scenecut-bias=0.05 / no-opt-cu-delta-qp / no-aq-motion / no-hdr / no-hdr-opt / no-dhdr10-opt / no-idr-recovery-sei / analysis-reuse-level=5 / scale-factor=0 / refine-intra=0 / refine-inter=0 / refine-mv=0 / no-limit-sao / ctu-info=0 / no-lowpass-dct / refine-mv-type=0 / copy-pic=1 / max-ausize-factor=1.0 / no-dynamic-refine / no-single-sei
  33. Default                                  : Yes
  34. Forced                                   : No
  35. Color range                              : Limited
  36. Color primaries                          : BT.709
  37. Audio
  38. ID                                       : 2
  39. Format                                   : AC-3
  40. Format/Info                              : Audio Coding 3
  41. Commercial name                          : Dolby Digital
  42. Codec ID                                 : A_AC3
  43. Duration                                 : 1 h 54 min
  44. Bit rate mode                            : Constant
  45. Bit rate                                 : 640 kb/s
  46. Channel(s)                               : 6 channels
  47. Channel layout                           : L R C LFE Ls Rs
  48. Sampling rate                            : 48.0 kHz
  49. Frame rate                               : 31.250 FPS (1536 SPF)
  50. Compression mode                         : Lossy
  51. Stream size                              : 524 MiB (11%)
  52. Service kind                             : Complete Main
  53. Default                                  : Yes
  54. Forced                                   : No
  55. Text #1
  56. ID                                       : 3
  57. Format                                   : PGS
  58. Muxing mode                              : zlib
  59. Codec ID                                 : S_HDMV/PGS
  60. Codec ID/Info                            : Picture based subtitle format used on BDs/HD-DVDs
  61. Duration                                 : 1 h 52 min
  62. Bit rate                                 : 30.3 kb/s
  63. Count of elements                        : 2373
  64. Stream size                              : 24.4 MiB (1%)
  65. Language                                 : English
  66. Default                                  : No
  67. Forced                                   : No
  68. Text #2
  69. ID                                       : 4
  70. Format                                   : PGS
  71. Muxing mode                              : zlib
  72. Codec ID                                 : S_HDMV/PGS
  73. Codec ID/Info                            : Picture based subtitle format used on BDs/HD-DVDs
  74. Duration                                 : 1 h 51 min
  75. Bit rate                                 : 21.5 kb/s
  76. Count of elements                        : 2726
  77. Stream size                              : 17.2 MiB (0%)
  78. Language                                 : Chinese
  79. Default                                  : Yes
  80. Forced                                   : No
  81. Text #3
  82. ID                                       : 5
  83. Format                                   : PGS
  84. Muxing mode                              : zlib
  85. Codec ID                                 : S_HDMV/PGS
  86. Codec ID/Info                            : Picture based subtitle format used on BDs/HD-DVDs
  87. Duration                                 : 1 h 51 min
  88. Bit rate                                 : 22.3 kb/s
  89. Count of elements                        : 2726
  90. Stream size                              : 17.8 MiB (0%)
  91. Language                                 : Chinese
  92. Default                                  : No
  93. Forced                                   : No
  94. Menu
  95. 00:00:00.000                             : en:Chapter 01
  96. 00:05:39.875                             : en:Chapter 02
  97. 00:17:04.916                             : en:Chapter 03
  98. 00:30:04.291                             : en:Chapter 04
  99. 00:39:49.250                             : en:Chapter 05
  100. 00:47:00.541                             : en:Chapter 06
  101. 00:57:58.541                             : en:Chapter 07
  102. 01:07:22.125                             : en:Chapter 08
  103. 01:16:11.750                             : en:Chapter 09
  104. 01:27:17.708                             : en:Chapter 10
  105. 01:35:13.583                             : en:Chapter 11
  106. 01:44:27.125                             : en:Chapter 12





此处一般会放置磁力链或种子下载链接,不过此链接需要注册会员才能看到,点击“立即注册”
磁力链下载【下载链接仅对注册会员开放,登陆后可见】
BT9527电影天堂 1、BT9527电影天堂提供的BT文件均来源于互联网抓取,只供网友学习交流、技术提升使用。
2、我们遵守BitTorrent点对点协议原则,任何版权问题请联系原资源发布商,我们不处理任何版权纠纷,谢谢!如有争议请联系邮箱:BT9527#hotmail.com(#换成@)
3、如果您发现某页面或地址有错误,请联系站长邮箱BT9527#hotmail.com(#换成@),我们会尽快处理。您的热心是对BT9527电影天堂最大的支持。
4、本站建议去正规影院观看电影以支持电影行业发展。
最新回复 (0)

你可以在 登录 or 注册 后,对此帖发表评论!

返回
发新帖