抛掉书本上街去[简繁英字幕].Throw.Away.Your.Books.Rally.in.the.Streets.1971.1080p.BluRay.DTS.x265-10bit-ENTHD 9.10GB

版主小s 7天前 56

✔资源类型:暂未分类   ✔电影年份:更 早   ✔电影地区:日本   ✔电影分类:剧情

◎标  题 抛掉书本上街去
◎译  名 抛下书本,跑上街 / Throw Away Your Books /  Rally in the Streets / Sho o suteyo machi e deyou
◎片  名 書を捨てよ町へ出よう
◎年  代 1971
◎产  地 日本
◎类  别 剧情 / 音乐
◎语  言 日语
◎上映日期 1971-04-24(日本)
◎IMDb评分 7.6/10 (1920人评价)
◎IMDb链接 https://www.imdb.com/title/tt0228853/
◎豆瓣评分 8.5/10 (6768人评价)
◎豆瓣链接 https://movie.douban.com/subject/1401520/
◎片  长 137分钟
◎导  演 寺山修司 Shuji Terayama
◎编  剧 寺山修司 Shuji Terayama
◎演  员 平泉成 Sei Hiraizumi
       美轮明宏 Akihiro Miwa
       新高惠子 Keiko Niitaka
        Maki Asakawa
       Masahiro Saito Masahiro Saito
       小林夕岐子 Yukiko Kobayashi
       寺原孝明 J.A. Seazer
       寺山修司 Shuji Terayama
       寺原孝明 J.A. Seazer
       下田逸郎
       锄田正义 Masayoshi Sukita
       浦岡敬一 Keiichi Uraoka

◎简  介
  少年北村英明(佐々木英明 饰)生活在一个充满绝望、腐烂气息的家庭中。48岁的父亲(斎藤正治 饰)曾是陆军的上等兵,退伍后整天呆在家里无所事事,沉湎于自渎的堕落快感中;祖母(田中筆子 饰)老年痴呆,不问家务,还有偷窃的毛病;妹妹(小林由起子 饰)与周围的人完全没有交流,却和心爱的兔子发展出异乎寻常的亲密关系。校足球队的教练近江(平泉征 饰)对英明青眼有加,通过近江的引领,英明在花街柳巷献出了自己的第一次。妹妹和兔子的关系引起家人的焦虑,隔壁的金先生(下馬二五七 饰)偷偷杀掉兔子。绝望的妹妹勾引校足球的队员,结果反被球员们轮暴。                                    
                                黯淡的青春破碎滴血,没有希望。
  1. ##### MediaInfo ######
  2. General
  3. Unique ID                                : 23582816453737265624412933452463732359 (0x11BDE29EF73802DF19A2C2400659F687)
  4. Complete name                            : Throw.Away.Your.Books.Rally.in.the.Streets.1971.1080p.BluRay.DTS.x265-10bit-ENTHD.mkv
  5. Format                                   : Matroska
  6. Format version                           : Version 4
  7. File size                                : 9.10 GiB
  8. Duration                                 : 2 h 17 min
  9. Overall bit rate                         : 9 472 kb/s
  10. Movie name                               : Throw Away Your Books Rally in the Streets 1971 1080p BluRay DTS x265-10bit-HDS
  11. Encoded date                             : UTC 2022-06-22 15:38:31
  12. Writing application                      : mkvmerge v67.0.0 ('Under Stars') 64-bit
  13. Writing library                          : libebml v1.4.2 + libmatroska v1.6.4
  14. Video
  15. ID                                       : 1
  16. Format                                   : HEVC
  17. Format/Info                              : High Efficiency Video Coding
  18. Format profile                           : Main 10@L5.1@High
  19. Codec ID                                 : V_MPEGH/ISO/HEVC
  20. Duration                                 : 2 h 17 min
  21. Bit rate                                 : 7 936 kb/s
  22. Width                                    : 1 920 pixels
  23. Height                                   : 1 444 pixels
  24. Display aspect ratio                     : 4:3
  25. Frame rate mode                          : Constant
  26. Frame rate                               : 23.976 (24000/1001/53354) FPS
  27. Color space                              : YUV
  28. Chroma subsampling                       : 4:2:0
  29. Bit depth                                : 10 bits
  30. Bits/(Pixel*Frame)                       : 0.119
  31. Stream size                              : 7.62 GiB (84%)
  32. Title                                    : meyu@HDSky
  33. Writing library                          : x265 - H.265/HEVC codec
  34. Default                                  : Yes
  35. Forced                                   : No
  36. Audio
  37. ID                                       : 2
  38. Format                                   : DTS
  39. Format/Info                              : Digital Theater Systems
  40. Codec ID                                 : A_DTS
  41. Duration                                 : 2 h 17 min
  42. Bit rate mode                            : Constant
  43. Bit rate                                 : 1 509 kb/s
  44. Channel(s)                               : 2 channels
  45. Channel layout                           : L R
  46. Sampling rate                            : 48.0 kHz
  47. Frame rate                               : 93.750 FPS (512 SPF)
  48. Bit depth                                : 24 bits
  49. Compression mode                         : Lossy
  50. Stream size                              : 1.45 GiB (16%)
  51. Title                                    : Japanese
  52. Language                                 : Japanese
  53. Default                                  : Yes
  54. Forced                                   : No
  55. Text #1
  56. ID                                       : 3
  57. Format                                   : PGS
  58. Muxing mode                              : zlib
  59. Codec ID                                 : S_HDMV/PGS
  60. Codec ID/Info                            : Picture based subtitle format used on BDs/HD-DVDs
  61. Duration                                 : 2 h 11 min
  62. Bit rate                                 : 14.4 kb/s
  63. Count of elements                        : 2038
  64. Stream size                              : 13.6 MiB (0%)
  65. Title                                    : CHS
  66. Language                                 : Chinese
  67. Default                                  : Yes
  68. Forced                                   : No
  69. Text #2
  70. ID                                       : 4
  71. Format                                   : PGS
  72. Muxing mode                              : zlib
  73. Codec ID                                 : S_HDMV/PGS
  74. Codec ID/Info                            : Picture based subtitle format used on BDs/HD-DVDs
  75. Duration                                 : 2 h 11 min
  76. Bit rate                                 : 15.3 kb/s
  77. Count of elements                        : 2038
  78. Stream size                              : 14.4 MiB (0%)
  79. Title                                    : CHT
  80. Language                                 : Chinese
  81. Default                                  : Yes
  82. Forced                                   : No
  83. Text #3
  84. ID                                       : 5
  85. Format                                   : PGS
  86. Muxing mode                              : zlib
  87. Codec ID                                 : S_HDMV/PGS
  88. Codec ID/Info                            : Picture based subtitle format used on BDs/HD-DVDs
  89. Duration                                 : 2 h 12 min
  90. Bit rate                                 : 20.4 kb/s
  91. Count of elements                        : 2134
  92. Stream size                              : 19.3 MiB (0%)
  93. Title                                    : ENG
  94. Language                                 : English
  95. Default                                  : Yes
  96. Forced                                   : No
  97. Menu
  98. 00:00:00.000                             : en:第 01 章
  99. 00:05:23.823                             : en:第 02 章
  100. 00:07:25.445                             : en:第 03 章
  101. 00:08:53.825                             : en:第 04 章
  102. 00:10:52.110                             : en:第 05 章
  103. 00:13:30.977                             : en:第 06 章
  104. 00:17:30.841                             : en:第 07 章
  105. 00:19:51.857                             : en:第 08 章
  106. 00:22:36.689                             : en:第 09 章
  107. 00:37:13.481                             : en:第 10 章
  108. 00:39:47.218                             : en:第 11 章
  109. 00:43:24.310                             : en:第 12 章
  110. 00:45:17.798                             : en:第 13 章
  111. 00:49:02.731                             : en:第 14 章
  112. 00:53:27.663                             : en:第 15 章
  113. 00:58:52.904                             : en:第 16 章
  114. 01:08:39.449                             : en:第 17 章
  115. 01:12:07.406                             : en:第 18 章
  116. 01:15:38.200                             : en:第 19 章
  117. 01:24:02.537                             : en:第 20 章
  118. 01:29:34.995                             : en:第 21 章
  119. 01:31:30.360                             : en:第 22 章
  120. 01:33:30.772                             : en:第 23 章
  121. 01:39:18.953                             : en:第 24 章
  122. 01:42:16.297                             : en:第 25 章
  123. 01:47:34.615                             : en:第 26 章
  124. 01:49:16.550                             : en:第 27 章
  125. 01:52:40.379                             : en:第 28 章
  126. 01:55:35.428                             : en:第 29 章
  127. 01:58:26.141                             : en:第 30 章
  128. 02:03:27.191                             : en:第 31 章
  129. 02:06:58.861                             : en:第 32 章
  130. 02:12:14.176                             : en:第 33 章





此处一般会放置磁力链或种子下载链接,不过此链接需要注册会员才能看到,点击“立即注册”
磁力链下载【下载链接仅对注册会员开放,登陆后可见】
BT9527电影天堂 1、BT9527电影天堂提供的BT文件均来源于互联网抓取,只供网友学习交流、技术提升使用。
2、我们遵守BitTorrent点对点协议原则,任何版权问题请联系原资源发布商,我们不处理任何版权纠纷,谢谢!如有争议请联系邮箱:BT9527#hotmail.com(#换成@)
3、如果您发现某页面或地址有错误,请联系站长邮箱BT9527#hotmail.com(#换成@),我们会尽快处理。您的热心是对BT9527电影天堂最大的支持。
4、本站建议去正规影院观看电影以支持电影行业发展。
最新回复 (0)

你可以在 登录 or 注册 后,对此帖发表评论!

返回
发新帖