心慌方[繁英字幕].CUBE.2021.BluRay.1080p.DTS-HD.MA5.1.x265.10bit-ALT 6.87GB

版主小s 10天前 76

✔资源类型:暂未分类   ✔电影年份:2021   ✔电影地区:日本   ✔电影分类:悬疑

◎标  题 心慌方
◎译  名 心慌方 日本版 / 死亡立方(港) / 超栗方杀阵(台) / CUBE异次元杀阵:最后一次进去 / CUBE
◎片  名 CUBE 一度入ったら、最後
◎年  代 2021
◎产  地 日本
◎类  别 悬疑 / 惊悚
◎语  言 日语
◎上映日期 2021-10-22(日本)
◎IMDb评分 4.6/10 (634人评价)
◎IMDb链接 https://www.imdb.com/title/tt13975458/
◎豆瓣评分 4.2/10 (3975人评价)
◎豆瓣链接 https://movie.douban.com/subject/35348991/
◎片  长 108分钟
◎导  演 清水康彦 Yasuhiko Shimizu
◎编  剧 徳尾浩司 Koji Tokuo
◎演  员 菅田将晖 Masaki Suda
       杏 Anne
       冈田将生 Masaki Okada
       斋藤工 Takumi Saitô
       吉田钢太郎 Kôtarô Yoshida
       田代辉 Tashiro Hikaru
       柄本时生 Tokio Emoto

◎简  介
  #心慌方翻拍日本版#《综艺》报道:著名科幻悬疑惊悚片《心慌方/异次元杀阵》翻拍日本版。菅田将晖、冈田将生、斋藤工、杏、吉田健太郎 、田代辉出演六个主人公,他们发现被困在一座神秘复杂的迷宫中,面临……清水康彦(《万力》)执导,松竹发行,去年10月、11月已拍完,定档今年10月22日日本上映。
  1. ##### MediaInfo ######
  2. General
  3. Unique ID                                : 239168430260956984822701589458159990480 (0xB3EE2A0655CC7AB37B678488ADE0F6D0)
  4. Complete name                            : CUBE.2021.BluRay.1080p.DTS-HD.MA5.1.x265.10bit-ALT.mkv
  5. Format                                   : Matroska
  6. Format version                           : Version 4
  7. File size                                : 6.87 GiB
  8. Duration                                 : 1 h 48 min
  9. Overall bit rate mode                    : Variable
  10. Overall bit rate                         : 9 066 kb/s
  11. Encoded date                             : UTC 2022-06-23 05:03:22
  12. Writing application                      : mkvmerge v49.0.0 ('Sick Of Losing Soulmates') 64-bit
  13. Writing library                          : libebml v1.4.0 + libmatroska v1.6.1
  14. Video
  15. ID                                       : 1
  16. Format                                   : HEVC
  17. Format/Info                              : High Efficiency Video Coding
  18. Format profile                           : Main 10@L5.1@High
  19. Codec ID                                 : V_MPEGH/ISO/HEVC
  20. Duration                                 : 1 h 48 min
  21. Bit rate                                 : 5 526 kb/s
  22. Width                                    : 1 920 pixels
  23. Height                                   : 1 038 pixels
  24. Display aspect ratio                     : 1.85:1
  25. Frame rate mode                          : Constant
  26. Frame rate                               : 24.000 FPS
  27. Color space                              : YUV
  28. Chroma subsampling                       : 4:2:0
  29. Bit depth                                : 10 bits
  30. Bits/(Pixel*Frame)                       : 0.116
  31. Stream size                              : 4.19 GiB (61%)
  32. Title                                    : HEVC, x265Main10@L5.1@High, 24 fps @ 5525 kbps
  33. Writing library                          : x265 3.5+36-1f2c8da77:[Windows][GCC 11.2.0][64 bit] 10bit
  34. Encoding settings                        : cpuid=533541111039 / frame-threads=4 / numa-pools=16 / wpp / no-pmode / no-pme / no-psnr / no-ssim / log-level=2 / input-csp=1 / input-res=1920x1038 / interlace=0 / total-frames=156283 / level-idc=51 / high-tier=1 / uhd-bd=0 / ref=5 / no-allow-non-conformance / no-repeat-headers / annexb / no-aud / no-eob / no-eos / no-hrd / info / hash=0 / no-temporal-layers / open-gop / min-keyint=24 / keyint=240 / gop-lookahead=0 / bframes=6 / b-adapt=2 / b-pyramid / bframe-bias=0 / rc-lookahead=40 / lookahead-slices=0 / NTMzNTQ=uuDQuD2mJt9fsCf / scenecut=40 / no-hist-scenecut / radl=0 / no-splice / no-intra-refresh / ctu=32 / min-cu-size=8 / no-rect / no-amp / max-tu-size=32 / tu-inter-depth=3 / tu-intra-depth=3 / limit-tu=4 / rdoq-level=2 / dynamic-rd=0.00 / no-ssim-rd / signhide / no-tskip / nr-intra=0 / nr-inter=0 / no-constrained-intra / no-strong-intra-smoothing / max-merge=4 / limit-refs=1 / limit-modes / me=3 / subme=4 / merange=25 / temporal-mvp / no-frame-dup / no-hme / weightp / weightb / no-analyze-src-pics / deblock=-3:-3 / no-sao / no-sao-non-deblock / rd=6 / selective-sao=0 / no-early-skip / rskip / no-fast-intra / no-tskip-fast / no-cu-lossless / b-intra / no-splitrd-skip / rdpenalty=0 / psy-rd=2.00 / psy-rdoq=1.00 / no-rd-refine / no-lossless / cbqpoffs=-2 / crqpoffs=-2 / rc=crf / crf=17.0 / qcomp=0.65 / qpstep=4 / stats-write=0 / stats-read=0 / vbv-maxrate=80000 / vbv-bufsize=80000 / vbv-init=0.9 / min-vbv-fullness=50.0 / max-vbv-fullness=80.0 / crf-max=0.0 / crf-min=0.0 / ipratio=1.40 / pbratio=1.30 / aq-mode=2 / aq-strength=0.85 / cutree / zone-count=0 / no-strict-cbr / qg-size=32 / no-rc-grain / qpmax=69 / qpmin=0 / no-const-vbv / sar=1 / overscan=0 / videoformat=5 / range=0 / colorprim=1 / transfer=1 / colormatrix=1 / chromaloc=0 / display-window=0 / cll=0,0 / min-luma=0 / max-luma=1023 / log2-max-poc-lsb=8 / vui-timing-info / vui-hrd-info / slices=1 / no-opt-qp-pps / no-opt-ref-list-length-pps / no-multi-pass-opt-rps / scenecut-bias=0.05 / hist-threshold=0.03 / no-opt-cu-delta-qp / no-aq-motion / no-hdr10 / no-hdr10-opt / no-dhdr10-opt / no-idr-recovery-sei / analysis-reuse-level=0 / analysis-save-reuse-level=0 / analysis-load-reuse-level=0 / scale-factor=0 / refine-intra=0 / refine-inter=0 / refine-mv=1 / refine-ctu-distortion=0 / no-limit-sao / ctu-info=0 / no-lowpass-dct / refine-analysis-type=0 / copy-pic=1 / max-ausize-factor=1.0 / no-dynamic-refine / no-single-sei / no-hevc-aq / no-svt / no-field / qp-adaptation-range=1.00 / scenecut-aware-qp=0conformance-window-offsets / right=0 / bottom=0 / NTMzNTQ= / decoder-max-rate=0 / no-vbv-live-multi-pass
  35. Language                                 : English
  36. Default                                  : Yes
  37. Forced                                   : No
  38. Color range                              : Limited
  39. Color primaries                          : BT.709
  40. Transfer characteristics                 : BT.709
  41. Matrix coefficients                      : BT.709
  42. Audio
  43. ID                                       : 2
  44. Format                                   : DTS ES XLL
  45. Format/Info                              : Digital Theater Systems
  46. Commercial name                          : DTS-HD Master Audio
  47. Codec ID                                 : A_DTS
  48. Duration                                 : 1 h 48 min
  49. Bit rate mode                            : Variable
  50. Bit rate                                 : 3 512 kb/s
  51. Channel(s)                               : 6 channels
  52. Channel(s)_Original                      : 7 channels
  53. ChannelLayout_Original                   : C L R Ls Rs LFE Cs
  54. Sampling rate                            : 48.0 kHz
  55. Frame rate                               : 93.750 FPS (512 SPF)
  56. Bit depth                                : 24 bits
  57. Compression mode                         : Lossless
  58. Stream size                              : 2.66 GiB (39%)
  59. Title                                    : Japanese DTS-HD Master Audio 5.1 @ 3512 kbps
  60. Language                                 : Japanese
  61. Default                                  : Yes
  62. Forced                                   : No
  63. Text #1
  64. ID                                       : 3
  65. Format                                   : PGS
  66. Codec ID                                 : S_HDMV/PGS
  67. Codec ID/Info                            : Picture based subtitle format used on BDs/HD-DVDs
  68. Duration                                 : 1 h 40 min
  69. Bit rate                                 : 12.5 kb/s
  70. Count of elements                        : 1279
  71. Stream size                              : 8.98 MiB (0%)
  72. Title                                    : Cht/SUP  原盘繁体
  73. Language                                 : Chinese
  74. Default                                  : Yes
  75. Forced                                   : No
  76. Text #2
  77. ID                                       : 4
  78. Format                                   : PGS
  79. Codec ID                                 : S_HDMV/PGS
  80. Codec ID/Info                            : Picture based subtitle format used on BDs/HD-DVDs
  81. Duration                                 : 1 h 44 min
  82. Bit rate                                 : 14.2 kb/s
  83. Count of elements                        : 1305
  84. Stream size                              : 10.5 MiB (0%)
  85. Title                                    : Eng/SUP
  86. Language                                 : English
  87. Default                                  : No
  88. Forced                                   : No
  89. Menu
  90. 00:00:00.000                             : en:第 01 章
  91. 00:09:34.208                             : en:第 02 章
  92. 00:21:06.417                             : en:第 03 章
  93. 00:28:51.708                             : en:第 04 章
  94. 00:37:32.125                             : en:第 05 章
  95. 00:47:59.042                             : en:第 06 章
  96. 00:53:50.333                             : en:第 07 章
  97. 01:02:44.417                             : en:第 08 章
  98. 01:09:19.167                             : en:第 09 章
  99. 01:22:20.167                             : en:第 10 章
  100. 01:28:20.792                             : en:第 11 章
  101. 01:44:57.875                             : en:第 12 章





此处一般会放置磁力链或种子下载链接,不过此链接需要注册会员才能看到,点击“立即注册”
磁力链下载【下载链接仅对注册会员开放,登陆后可见】
BT9527电影天堂 1、BT9527电影天堂提供的BT文件均来源于互联网抓取,只供网友学习交流、技术提升使用。
2、我们遵守BitTorrent点对点协议原则,任何版权问题请联系原资源发布商,我们不处理任何版权纠纷,谢谢!如有争议请联系邮箱:BT9527#hotmail.com(#换成@)
3、如果您发现某页面或地址有错误,请联系站长邮箱BT9527#hotmail.com(#换成@),我们会尽快处理。您的热心是对BT9527电影天堂最大的支持。
4、本站建议去正规影院观看电影以支持电影行业发展。
最新回复 (0)

你可以在 登录 or 注册 后,对此帖发表评论!

返回
发新帖