心慌方[简英字幕].CUBE.2021.1080p.BluRay.DTS.x265-10bit-ENTHD 8.07GB

版主小s 10天前 37

✔资源类型:暂未分类   ✔电影年份:2021   ✔电影地区:日本   ✔电影分类:悬疑

◎标  题 心慌方
◎译  名 心慌方 日本版 / 死亡立方(港) / 超栗方杀阵(台) / CUBE异次元杀阵:最后一次进去 / CUBE
◎片  名 CUBE 一度入ったら、最後
◎年  代 2021
◎产  地 日本
◎类  别 悬疑 / 惊悚
◎语  言 日语
◎上映日期 2021-10-22(日本)
◎IMDb评分 4.6/10 (634人评价)
◎IMDb链接 https://www.imdb.com/title/tt13975458/
◎豆瓣评分 4.2/10 (3975人评价)
◎豆瓣链接 https://movie.douban.com/subject/35348991/
◎片  长 108分钟
◎导  演 清水康彦 Yasuhiko Shimizu
◎编  剧 徳尾浩司 Koji Tokuo
◎演  员 菅田将晖 Masaki Suda
       杏 Anne
       冈田将生 Masaki Okada
       斋藤工 Takumi Saitô
       吉田钢太郎 Kôtarô Yoshida
       田代辉 Tashiro Hikaru
       柄本时生 Tokio Emoto

◎简  介
  #心慌方翻拍日本版#《综艺》报道:著名科幻悬疑惊悚片《心慌方/异次元杀阵》翻拍日本版。菅田将晖、冈田将生、斋藤工、杏、吉田健太郎 、田代辉出演六个主人公,他们发现被困在一座神秘复杂的迷宫中,面临……清水康彦(《万力》)执导,松竹发行,去年10月、11月已拍完,定档今年10月22日日本上映。
  1. ##### MediaInfo ######
  2. General
  3. Unique ID                                : 180936273038366633568432847265794299801 (0x881F0F022E89FA5201B4448F3D2B1799)
  4. Complete name                            : CUBE.2021.1080p.BluRay.DTS.x265-10bit-ENTHD.mkv
  5. Format                                   : Matroska
  6. Format version                           : Version 4
  7. File size                                : 8.07 GiB
  8. Duration                                 : 1 h 48 min
  9. Overall bit rate mode                    : Variable
  10. Overall bit rate                         : 10.6 Mb/s
  11. Movie name                               : CUBE 2021 1080p BluRay DTS x265-10bit-HDS
  12. Encoded date                             : UTC 2022-06-23 01:18:14
  13. Writing application                      : mkvmerge v67.0.0 ('Under Stars') 64-bit
  14. Writing library                          : libebml v1.4.2 + libmatroska v1.6.4
  15. Video
  16. ID                                       : 1
  17. Format                                   : HEVC
  18. Format/Info                              : High Efficiency Video Coding
  19. Format profile                           : Main 10@L5.1@High
  20. Codec ID                                 : V_MPEGH/ISO/HEVC
  21. Duration                                 : 1 h 48 min
  22. Bit rate                                 : 7 119 kb/s
  23. Width                                    : 1 920 pixels
  24. Height                                   : 1 036 pixels
  25. Display aspect ratio                     : 1.85:1
  26. Frame rate mode                          : Constant
  27. Frame rate                               : 24.000 FPS
  28. Color space                              : YUV
  29. Chroma subsampling                       : 4:2:0
  30. Bit depth                                : 10 bits
  31. Bits/(Pixel*Frame)                       : 0.149
  32. Stream size                              : 5.40 GiB (67%)
  33. Title                                    : szlcug@HDSky
  34. Writing library                          : x265 - H.265/HEVC codec
  35. Default                                  : Yes
  36. Forced                                   : No
  37. Audio
  38. ID                                       : 2
  39. Format                                   : DTS ES XLL
  40. Format/Info                              : Digital Theater Systems
  41. Commercial name                          : DTS-HD Master Audio
  42. Codec ID                                 : A_DTS
  43. Duration                                 : 1 h 48 min
  44. Bit rate mode                            : Variable
  45. Bit rate                                 : 3 512 kb/s
  46. Channel(s)                               : 6 channels
  47. Channel(s)_Original                      : 7 channels
  48. ChannelLayout_Original                   : C L R Ls Rs LFE Cs
  49. Sampling rate                            : 48.0 kHz
  50. Frame rate                               : 93.750 FPS (512 SPF)
  51. Bit depth                                : 24 bits
  52. Compression mode                         : Lossless
  53. Stream size                              : 2.66 GiB (33%)
  54. Title                                    : English
  55. Language                                 : English
  56. Default                                  : Yes
  57. Forced                                   : No
  58. Text #1
  59. ID                                       : 3
  60. Format                                   : PGS
  61. Muxing mode                              : zlib
  62. Codec ID                                 : S_HDMV/PGS
  63. Codec ID/Info                            : Picture based subtitle format used on BDs/HD-DVDs
  64. Duration                                 : 1 h 44 min
  65. Bit rate                                 : 14.2 kb/s
  66. Count of elements                        : 1305
  67. Stream size                              : 10.5 MiB (0%)
  68. Title                                    : ENG
  69. Language                                 : English
  70. Default                                  : Yes
  71. Forced                                   : No
  72. Text #2
  73. ID                                       : 4
  74. Format                                   : PGS
  75. Muxing mode                              : zlib
  76. Codec ID                                 : S_HDMV/PGS
  77. Codec ID/Info                            : Picture based subtitle format used on BDs/HD-DVDs
  78. Duration                                 : 1 h 40 min
  79. Bit rate                                 : 12.5 kb/s
  80. Count of elements                        : 1279
  81. Stream size                              : 8.98 MiB (0%)
  82. Title                                    : CHS
  83. Language                                 : Chinese
  84. Default                                  : Yes
  85. Forced                                   : No
  86. Menu
  87. 00:00:00.000                             : en:第 01 章
  88. 00:09:34.208                             : en:第 02 章
  89. 00:21:06.417                             : en:第 03 章
  90. 00:28:51.708                             : en:第 04 章
  91. 00:37:32.125                             : en:第 05 章
  92. 00:47:59.042                             : en:第 06 章
  93. 00:53:50.333                             : en:第 07 章
  94. 01:02:44.417                             : en:第 08 章
  95. 01:09:19.167                             : en:第 09 章
  96. 01:22:20.167                             : en:第 10 章
  97. 01:28:20.792                             : en:第 11 章
  98. 01:44:57.875                             : en:第 12 章
  99. 01:48:31.375                             : en:第 13 章





此处一般会放置磁力链或种子下载链接,不过此链接需要注册会员才能看到,点击“立即注册”
磁力链下载【下载链接仅对注册会员开放,登陆后可见】
BT9527电影天堂 1、BT9527电影天堂提供的BT文件均来源于互联网抓取,只供网友学习交流、技术提升使用。
2、我们遵守BitTorrent点对点协议原则,任何版权问题请联系原资源发布商,我们不处理任何版权纠纷,谢谢!如有争议请联系邮箱:BT9527#hotmail.com(#换成@)
3、如果您发现某页面或地址有错误,请联系站长邮箱BT9527#hotmail.com(#换成@),我们会尽快处理。您的热心是对BT9527电影天堂最大的支持。
4、本站建议去正规影院观看电影以支持电影行业发展。
最新回复 (0)

你可以在 登录 or 注册 后,对此帖发表评论!

返回
发新帖