熔炉[简繁英字幕].Silenced.2011.BluRay.1080p.x265.10bit-MiniHD 3.95GB

版主小s 10天前 82

✔资源类型:暂未分类   ✔电影年份:2011   ✔电影地区:韩国   ✔电影分类:剧情

◎标  题 熔炉
◎译  名 无声呐喊(港) / 漩涡 / Silenced / The Crucible
◎片  名 도가니
◎年  代 2011
◎产  地 韩国
◎类  别 剧情
◎语  言 韩语
◎上映日期 2011-09-22(韩国)
◎IMDb评分 8.1/10 (14205人评价)
◎IMDb链接 https://www.imdb.com/title/tt2070649/
◎豆瓣评分 9.3/10 (814158人评价)
◎豆瓣链接 https://movie.douban.com/subject/5912992/
◎片  长 125分钟
◎导  演 黄东赫 Dong-hyuk Hwang
◎编  剧 黄东赫 Dong-hyuk Hwang
       孔枝泳 Ji-young Gong
◎演  员 孔刘 Yoo Gong
       郑有美 Yu-mi Jung
       金贤秀 Hyun-su Kim
       郑仁絮 In-seo Jeong
       白承焕 Seung-Hwan Baek
       张光 Gwang Jang
       金民尚 Kim Min-sang
       林贤成 Hyun-Sung Lim
       金周灵 Joo-ryeong Kim
       严孝燮 Uhm Hyo Sup
       全国焕 Gook-hwan Jeon
       崔镇浩 Jin-ho Choi
       金志映 Jee-young Kim
       严智星 Ji-seong Eom
       许在浩 Heo Jae-ho
       张素妍 So-yeon Jang
       李相熹 Jang-yoo  Lee
       金智怜 Ji-Young Kim
        
       张宥 Yoo Jang
       林贤成 Lim Hyun Sung
       郑亨锡 Jeong Hyeong-seok
       洪锡然 Suk-Youn Hong
       朴惠珍 Hye-jin Park
       李圣贤 Mowg
       金智龙 Ji-yong Kim
       朴晸培 Jung-bae Park

◎标  签 人性 / 韩国 / 犯罪 / 社会 / 虐心 / 熔炉 / 震撼 / 剧情

◎简  介
  来自首尔的哑语美术老师仁浩(孔宥 饰)来到雾津,应聘慈爱聋哑人学校。天降大雾,他意外撞车,维修时邂逅了人权组织成员柔珍(郑有美 饰)。仁浩妻子早亡,8岁女儿天生哮喘由祖母照看,所以他不辞辛苦谋职养家。然而,双胞胎的校长与教导主任竟逼仁浩索贿5千万韩元。同时,仁浩逐渐发现学校笼罩着一种紧张压抑的气氛,令人窒息。有三个孩子引人关注:聪颖的金妍斗(金贤秀 饰)、贪吃的陈宥利(郑仁絮 饰)和弟弟自杀身亡的全民秀(白承焕 饰),民秀总是满脸淤青。下课后,仁浩还听到女厕所中有呼喊与哭泣,在门卫的阻拦下他未深究。之后。他意外目睹了校长行贿警察,教导员毒打民秀,宿导溺罚妍斗的行径。一个惊天的隐秘被慢慢揭开,真相令韩国震惊……                                    
                                本片取材于2005年光州一所聋哑障碍人学校的真实事件,改编自韩国作家孔枝泳的同名小说。
  1. ##### MediaInfo ######
  2. General
  3. Unique ID                                : 262682034540321673032293261253392794249 (0xC59EB838D82ADADF2F80EDC252FD0289)
  4. Complete name                            : Silenced.2011.BluRay.1080p.x265.10bit-MiniHD.mkv
  5. Format                                   : Matroska
  6. Format version                           : Version 4
  7. File size                                : 3.95 GiB
  8. Duration                                 : 2 h 4 min
  9. Overall bit rate                         : 4 527 kb/s
  10. Encoded date                             : UTC 2018-01-30 13:31:58
  11. Writing application                      : mkvmerge v20.0.0 ('I Am The Sun') 64-bit
  12. Writing library                          : libebml v1.3.5 + libmatroska v1.4.8
  13. Video
  14. ID                                       : 1
  15. Format                                   : HEVC
  16. Format/Info                              : High Efficiency Video Coding
  17. Format profile                           : Main 10@L4@High
  18. Codec ID                                 : V_MPEGH/ISO/HEVC
  19. Duration                                 : 2 h 4 min
  20. Bit rate                                 : 3 863 kb/s
  21. Width                                    : 1 920 pixels
  22. Height                                   : 820 pixels
  23. Display aspect ratio                     : 2.35:1
  24. Frame rate mode                          : Constant
  25. Frame rate                               : 23.976 (24000/1001/53354) FPS
  26. Color space                              : YUV
  27. Chroma subsampling                       : 4:2:0
  28. Bit depth                                : 10 bits
  29. Bits/(Pixel*Frame)                       : 0.102
  30. Stream size                              : 3.37 GiB (85%)
  31. Title                                    : 视频
  32. Default                                  : Yes
  33. Forced                                   : No
  34. Color range                              : Limited
  35. Color primaries                          : BT.709
  36. Audio
  37. ID                                       : 2
  38. Format                                   : AC-3
  39. Format/Info                              : Audio Coding 3
  40. Commercial name                          : Dolby Digital
  41. Codec ID                                 : A_AC3
  42. Duration                                 : 2 h 4 min
  43. Bit rate mode                            : Constant
  44. Bit rate                                 : 640 kb/s
  45. Channel(s)                               : 6 channels
  46. Channel layout                           : L R C LFE Ls Rs
  47. Sampling rate                            : 48.0 kHz
  48. Frame rate                               : 31.250 FPS (1536 SPF)
  49. Compression mode                         : Lossy
  50. Stream size                              : 572 MiB (14%)
  51. Title                                    : 韩语
  52. Service kind                             : Complete Main
  53. Default                                  : Yes
  54. Forced                                   : No
  55. Text #1
  56. ID                                       : 3
  57. Format                                   : PGS
  58. Muxing mode                              : zlib
  59. Codec ID                                 : S_HDMV/PGS
  60. Codec ID/Info                            : Picture based subtitle format used on BDs/HD-DVDs
  61. Duration                                 : 1 h 59 min
  62. Bit rate                                 : 26.4 kb/s
  63. Count of elements                        : 2193
  64. Stream size                              : 22.6 MiB (1%)
  65. Title                                    : 英语
  66. Language                                 : English
  67. Default                                  : No
  68. Forced                                   : No
  69. Text #2
  70. ID                                       : 4
  71. Format                                   : PGS
  72. Muxing mode                              : zlib
  73. Codec ID                                 : S_HDMV/PGS
  74. Codec ID/Info                            : Picture based subtitle format used on BDs/HD-DVDs
  75. Duration                                 : 2 h 0 min
  76. Bit rate                                 : 27.9 kb/s
  77. Count of elements                        : 2192
  78. Stream size                              : 24.1 MiB (1%)
  79. Title                                    : 韩语
  80. Default                                  : No
  81. Forced                                   : No
  82. Text #3
  83. ID                                       : 5
  84. Format                                   : UTF-8
  85. Codec ID                                 : S_TEXT/UTF8
  86. Codec ID/Info                            : UTF-8 Plain Text
  87. Duration                                 : 1 h 59 min
  88. Bit rate                                 : 69 b/s
  89. Count of elements                        : 1102
  90. Stream size                              : 61.2 KiB (0%)
  91. Title                                    : 简中
  92. Language                                 : Chinese
  93. Default                                  : Yes
  94. Forced                                   : No
  95. Text #4
  96. ID                                       : 6
  97. Format                                   : UTF-8
  98. Codec ID                                 : S_TEXT/UTF8
  99. Codec ID/Info                            : UTF-8 Plain Text
  100. Duration                                 : 1 h 59 min
  101. Bit rate                                 : 69 b/s
  102. Count of elements                        : 1102
  103. Stream size                              : 61.2 KiB (0%)
  104. Title                                    : 繁中
  105. Language                                 : Chinese
  106. Default                                  : No
  107. Forced                                   : No
  108. Menu
  109. 00:00:00.000                             : en:Chapter 01
  110. 00:03:52.315                             : en:Chapter 02
  111. 00:11:26.686                             : en:Chapter 03
  112. 00:17:13.074                             : en:Chapter 04
  113. 00:20:48.205                             : en:Chapter 05
  114. 00:24:41.438                             : en:Chapter 06
  115. 00:27:57.885                             : en:Chapter 07
  116. 00:32:29.322                             : en:Chapter 08
  117. 00:40:34.015                             : en:Chapter 09
  118. 00:47:58.751                             : en:Chapter 10
  119. 00:55:36.500                             : en:Chapter 11
  120. 01:04:02.422                             : en:Chapter 12
  121. 01:11:00.465                             : en:Chapter 13
  122. 01:14:15.701                             : en:Chapter 14
  123. 01:18:49.767                             : en:Chapter 15
  124. 01:22:10.592                             : en:Chapter 16
  125. 01:33:07.332                             : en:Chapter 17
  126. 01:41:47.643                             : en:Chapter 18
  127. 01:46:12.449                             : en:Chapter 19
  128. 01:51:58.086                             : en:Chapter 20
  129. 02:00:32.976                             : en:Chapter 21
  130. 02:04:53.236                             : en:Chapter 22





此处一般会放置磁力链或种子下载链接,不过此链接需要注册会员才能看到,点击“立即注册”
磁力链下载【下载链接仅对注册会员开放,登陆后可见】
BT9527电影天堂 1、BT9527电影天堂提供的BT文件均来源于互联网抓取,只供网友学习交流、技术提升使用。
2、我们遵守BitTorrent点对点协议原则,任何版权问题请联系原资源发布商,我们不处理任何版权纠纷,谢谢!如有争议请联系邮箱:BT9527#hotmail.com(#换成@)
3、如果您发现某页面或地址有错误,请联系站长邮箱BT9527#hotmail.com(#换成@),我们会尽快处理。您的热心是对BT9527电影天堂最大的支持。
4、本站建议去正规影院观看电影以支持电影行业发展。
最新回复 (0)

你可以在 登录 or 注册 后,对此帖发表评论!

返回
发新帖