我脑中的橡皮擦[中文字幕].A.Moment.to.Remember.2004.2160p.HDR.UHD.BluRay.DTS.x265-10bit-ENTHD 11.81GB

版主小s 3月前 223

✔资源类型:BD-4K   ✔电影年份:更 早   ✔电影地区:韩国   ✔电影分类:剧情

◎标  题 我脑中的橡皮擦
◎译  名 我脑海中的橡皮擦 / 拥抱这分钟(港) / Eraser in my head / A moment to remember / Nae meorisokui jiwoogae
◎片  名 내 머리 속의 지우개
◎年  代 2004
◎产  地 韩国
◎类  别 剧情 / 爱情
◎语  言 韩语
◎上映日期 2004-11-05(韩国)
◎IMDb评分 8.1/10 (23722人评价)
◎IMDb链接 https://www.imdb.com/title/tt0428870/
◎豆瓣评分 8.0/10 (241678人评价)
◎豆瓣链接 https://movie.douban.com/subject/1308804/
◎片  长 117分钟
◎导  演 李宰汉 John H. Lee
◎编  剧 李宰汉 John H. Lee
       金英夏 Yeong-ha Kim
◎演  员 郑雨盛 Woo-sung Jung
       孙艺珍 Ye-jin Son
       白钟学 Jong-hak Baek
       金富善 Bu-seon Kim
       金重基 Jung-ki Kim
       善智贤 Ji-hyun Seon
       玄英 Yeong Hyeon
       大卫·麦金尼斯 David  McInnis
       吴光禄 Kwang-rok Oh
       郑敏圣 Min-sung Jung
       李善珍 Seon-jin Lee
       陈庸旭 Jin Yong-wook
       朴美淑 Mi-suk Park
       徐进元 Jin-won Seo
       朴相奎 Park Sang-gyu
       朴永希 Yoon-hee Park
       金必 Feel Kim
       辉星 Wheesung
       Steve M. Choe Steve M. Choe
       李庸基 Yong-Gi Lee

◎简  介
  秀真(孙艺珍饰)是一个富家女,跟男友出走却被抛弃,在便利店内与在建筑公司当工人的哲洙(郑宇成饰)相遇。未来的日子里,他们一次又一次相遇,最终彼此相爱了。                                    
                                哲洙知道自己与秀真的身份悬殊,所以不敢轻易表白情谊,秀真向哲洙求婚。                                    
                                就算秀真父母阻拦,他们爱情的力量还是说服了父母。                                    
                                婚后生活甜蜜,秀真还帮忙修复了哲洙与母亲的关系。可是好景不长,秀真的记忆力开始一天比一天衰退,得了阿滋海默氏症,大脑在逐渐死亡。                                    
                                病魔深深折磨这相爱的两人,秀真有完全忘记一切的一天,可是哲洙却无法从此丢下秀真。                                    
                                他们的爱,能帮他们跨越记忆的考验吗
  1. ##### MediaInfo ######
  2. General
  3. Unique ID                                : 136910154474959176358809982961185202444 (0x66FFEFC649FE5FE3E3B8F6658668210C)
  4. Complete name                            : A.Moment.to.Remember.2004.2160p.HDR.UHD.BluRay.DTS.x265-10bit-ENTHD.mkv
  5. Format                                   : Matroska
  6. Format version                           : Version 4
  7. File size                                : 11.8 GiB
  8. Duration                                 : 1 h 57 min
  9. Overall bit rate                         : 14.4 Mb/s
  10. Movie name                               : A Moment to Remember 2004 2160p HDR UHD BluRay DTS-HD MA 5.1 x265-10bit-HDS
  11. Encoded date                             : UTC 2022-06-23 11:37:36
  12. Writing application                      : mkvmerge v67.0.0 ('Under Stars') 64-bit
  13. Writing library                          : libebml v1.4.2 + libmatroska v1.6.4
  14. Video
  15. ID                                       : 1
  16. Format                                   : HEVC
  17. Format/Info                              : High Efficiency Video Coding
  18. Format profile                           : Main 10@L5.1@High
  19. HDR format                               : SMPTE ST 2086, HDR10 compatible
  20. Codec ID                                 : V_MPEGH/ISO/HEVC
  21. Duration                                 : 1 h 57 min
  22. Bit rate                                 : 12.9 Mb/s
  23. Width                                    : 3 840 pixels
  24. Height                                   : 1 620 pixels
  25. Display aspect ratio                     : 2.40:1
  26. Frame rate mode                          : Constant
  27. Frame rate                               : 23.976 (24000/1001/53354) FPS
  28. Color space                              : YUV
  29. Chroma subsampling                       : 4:2:0
  30. Bit depth                                : 10 bits
  31. Bits/(Pixel*Frame)                       : 0.086
  32. Stream size                              : 10.6 GiB (89%)
  33. Title                                    : @HDSky
  34. Writing library                          : x265 - H.265/HEVC codec
  35. Default                                  : Yes
  36. Forced                                   : No
  37. Color range                              : Limited
  38. Color primaries                          : BT.2020
  39. Transfer characteristics                 : PQ
  40. Matrix coefficients                      : BT.2020 non-constant
  41. Mastering display color primaries        : BT.2020
  42. Mastering display luminance              : min: 0.0001 cd/m2, max: 1000 cd/m2
  43. Maximum Content Light Level              : 510 cd/m2
  44. Maximum Frame-Average Light Level        : 185 cd/m2
  45. Audio
  46. ID                                       : 2
  47. Format                                   : DTS
  48. Format/Info                              : Digital Theater Systems
  49. Codec ID                                 : A_DTS
  50. Duration                                 : 1 h 57 min
  51. Bit rate mode                            : Constant
  52. Bit rate                                 : 1 509 kb/s
  53. Channel(s)                               : 6 channels
  54. Channel layout                           : C L R Ls Rs LFE
  55. Sampling rate                            : 48.0 kHz
  56. Frame rate                               : 93.750 FPS (512 SPF)
  57. Bit depth                                : 24 bits
  58. Compression mode                         : Lossy
  59. Stream size                              : 1.24 GiB (10%)
  60. Title                                    : Korean
  61. Language                                 : Korean
  62. Default                                  : Yes
  63. Forced                                   : No
  64. Text #1
  65. ID                                       : 3
  66. Format                                   : PGS
  67. Muxing mode                              : zlib
  68. Codec ID                                 : S_HDMV/PGS
  69. Codec ID/Info                            : Picture based subtitle format used on BDs/HD-DVDs
  70. Duration                                 : 1 h 53 min
  71. Bit rate                                 : 18.6 kb/s
  72. Count of elements                        : 2156
  73. Stream size                              : 15.1 MiB (0%)
  74. Title                                    : CHS
  75. Language                                 : Chinese
  76. Default                                  : Yes
  77. Forced                                   : No
  78. Text #2
  79. ID                                       : 4
  80. Format                                   : PGS
  81. Muxing mode                              : zlib
  82. Codec ID                                 : S_HDMV/PGS
  83. Codec ID/Info                            : Picture based subtitle format used on BDs/HD-DVDs
  84. Duration                                 : 1 h 53 min
  85. Bit rate                                 : 19.0 kb/s
  86. Count of elements                        : 2156
  87. Stream size                              : 15.5 MiB (0%)
  88. Title                                    : CHT
  89. Language                                 : Chinese
  90. Default                                  : Yes
  91. Forced                                   : No
  92. Menu
  93. 00:00:00.000                             : en:第 01 章
  94. 00:00:55.347                             : en:第 02 章
  95. 00:09:09.215                             : en:第 03 章
  96. 00:22:05.783                             : en:第 04 章
  97. 00:40:04.819                             : en:第 05 章
  98. 00:49:31.719                             : en:第 06 章
  99. 01:03:37.439                             : en:第 07 章
  100. 01:14:38.933                             : en:第 08 章
  101. 01:25:43.096                             : en:第 09 章
  102. 01:35:35.939                             : en:第 10 章
  103. 01:37:07.363                             : en:第 11 章
  104. 01:44:04.780                             : en:第 12 章
  105. 01:50:22.324                             : en:第 13 章
  106. 01:54:17.893                             : en:第 14 章





此处一般会放置磁力链或种子下载链接,不过此链接需要注册会员才能看到,点击“立即注册”
磁力链下载【下载链接仅对注册会员开放,登陆后可见】
BT9527电影天堂 1、BT9527电影天堂提供的BT文件均来源于互联网抓取,只供网友学习交流、技术提升使用。
2、我们遵守BitTorrent点对点协议原则,任何版权问题请联系原资源发布商,我们不处理任何版权纠纷,谢谢!如有争议请联系邮箱:BT9527#hotmail.com(#换成@)
3、如果您发现某页面或地址有错误,请联系站长邮箱BT9527#hotmail.com(#换成@),我们会尽快处理。您的热心是对BT9527电影天堂最大的支持。
4、本站建议去正规影院观看电影以支持电影行业发展。
最新回复 (0)

你可以在 登录 or 注册 后,对此帖发表评论!

返回