潜伏3[简英字幕].Insidious.Chapter.3.2015.1080p.Bluray.HEVC.10bit-MiniHD 2.00GB

版主小s 1天前 20

✔资源类型:暂未分类   ✔电影年份:2015   ✔电影地区:其他   ✔电影分类:惊悚

◎标  题 潜伏3
◎译  名 儿凶 第三回(港) / 阴儿房第3章:从灵开始(台)
◎片  名 Insidious: Chapter 3
◎年  代 2015
◎产  地 加拿大 / 英国 / 美国
◎类  别 惊悚 / 恐怖
◎语  言 英语
◎上映日期 2015-06-05(美国)
◎IMDb评分 6.1/10 (102890人评价)
◎IMDb链接 https://www.imdb.com/title/tt3195644/
◎豆瓣评分 6.5/10 (36707人评价)
◎豆瓣链接 https://movie.douban.com/subject/25728008/
◎片  长 97分钟
◎导  演 雷·沃纳尔 Leigh Whannell
◎编  剧 雷·沃纳尔 Leigh Whannell
◎演  员 林·沙烨 Lin Shaye
       德蒙特·莫罗尼 Dermot Mulroney
       斯戴芬妮·斯考特 Stefanie Scott
       安格斯·桑普森 Angus Sampson
       雷·沃纳尔 Leigh Whannell
       迈克尔·雷德·麦基 Michael Reid MacKay
       斯蒂芬·考特尔 Steve Coulter
       海莉·清子 Hayley Kiyoko
       科比特·塔克 Corbett Tuck
       艾利·凯特斯 Ele Keats
       泰特·伯尼 Tate Berney
       汤姆·菲茨帕特里克 Tom Fitzpatrick
       汤姆·加洛普 Tom Gallop
       詹尼斯·波尼德克斯特 Jeris Poindexter
       菲莉丝·艾伯盖特 Phyllis Applegate
       温子仁 James Wan
       加雷特·瑞安 Garrett Ryan
       阿什顿·莫奥 Ashton Moio
       温子仁 James Wan
       奥伦·佩利 Oren Peli
       约瑟夫·比沙拉 Joseph Bishara
       布赖恩·皮尔森 Brian Pearson
       詹妮弗·斯彭斯 Jennifer Spence
       布拉德利·詹姆斯·艾伦 Bradley James Allan

◎简  介
  兰伯特闹鬼事件数年前,美丽的花季女孩奎恩·布伦纳(斯戴芬妮·斯考特 Stefanie Scott 饰)辗转找到已经退休的灵媒伊莉丝(林·沙烨 Lin Shaye 饰)。奎恩的妈妈在一年半前去世,但是她总感觉妈妈就在身边,她渴望能和妈妈再说上几句话。被奎恩真挚的情感所打动,伊莉丝决定帮她一把,谁知却似乎与某个可怕的众生建立了联系,伊莉丝告诫女孩决不能再尝试与亡母沟通。在此之后,热爱表演的奎恩回到原有生活中,谁知某次诡异事件让她遭遇严重车祸。伤愈出院后,围绕在奎恩身边的怪事愈演愈烈。                                    
                                而本以为没有联系的伊莉丝,似乎也觉察到奎恩所处的危险境地,她艰难地作出决定,救助这名随时会被夺去性命的女孩……
  1. ##### MediaInfo ######
  2. General
  3. Unique ID                                : 73825057175809149158452547179465551225 (0x378A3056E8401A72BD1FA8D597FE2D79)
  4. Complete name                            : 潜伏3.Insidious.Chapter.3.2015.1080p.Bluray.HEVC.10bit-MiniHD.mkv
  5. Format                                   : Matroska
  6. Format version                           : Version 4
  7. File size                                : 2.00 GiB
  8. Duration                                 : 1 h 37 min
  9. Overall bit rate                         : 2 948 kb/s
  10. Movie name                               : 潜伏3.Insidious.Chapter.3.2015.Bluray.1080p.HEVC.10bit-GHFLY
  11. Encoded date                             : UTC 2018-01-30 10:27:54
  12. Writing application                      : mkvmerge v20.0.0 ('I Am The Sun') 64-bit
  13. Writing library                          : libebml v1.3.5 + libmatroska v1.4.8
  14. Attachments                              : 麻辣江湖压制组.txt
  15. Video
  16. ID                                       : 1
  17. Format                                   : HEVC
  18. Format/Info                              : High Efficiency Video Coding
  19. Format profile                           : Main 10@L4@High
  20. Codec ID                                 : V_MPEGH/ISO/HEVC
  21. Duration                                 : 1 h 37 min
  22. Bit rate                                 : 2 532 kb/s
  23. Width                                    : 1 920 pixels
  24. Height                                   : 804 pixels
  25. Display aspect ratio                     : 2.40:1
  26. Frame rate mode                          : Constant
  27. Frame rate                               : 23.976 (24000/1001/53354) FPS
  28. Color space                              : YUV
  29. Chroma subsampling                       : 4:2:0
  30. Bit depth                                : 10 bits
  31. Bits/(Pixel*Frame)                       : 0.068
  32. Stream size                              : 1.72 GiB (86%)
  33. Writing library                          : x265 2.6+32-b763c22920f6:[Windows][MSVC 1912][64 bit] 10bit
  34. Encoding settings                        : cpuid=533541173503 / frame-threads=4 / numa-pools=16 / wpp / no-pmode / no-pme / no-psnr / no-ssim / log-level=2 / input-csp=1 / input-res=1920x804 / interlace=0 / total-frames=0 / level-idc=0 / high-tier=1 / uhd-bd=0 / ref=4 / no-allow-non-conformance / no-repeat-headers / annexb / no-aud / no-hrd / info / hash=0 / no-temporal-layers / no-open-gop / min-keyint=1 / keyint=600 / gop-lookahead=0 / bframes=6 / b-adapt=2 / b-pyramid / bframe-bias=0 / rc-lookahead=25 / lookahead-slices=4 / NTMzNTQ=uuDQuD2mJt9fsCf / scenecut=40 / radl=0 / no-intra-refresh / ctu=64 / min-cu-size=8 / no-rect / no-amp / max-tu-size=32 / tu-inter-depth=1 / tu-intra-depth=1 / limit-tu=0 / rdoq-level=2 / dynamic-rd=0.00 / no-ssim-rd / signhide / no-tskip / nr-intra=0 / nr-inter=0 / no-constrained-intra / strong-intra-smoothing / max-merge=3 / limit-refs=3 / limit-modes / me=3 / subme=3 / merange=44 / temporal-mvp / weightp / weightb / no-analyze-src-pics / deblock=0:0 / no-sao / no-sao-non-deblock / rd=4 / no-early-skip / rskip / no-fast-intra / no-tskip-fast / no-cu-lossless / no-b-intra / no-splitrd-skip / rdpenalty=0 / psy-rd=3.00 / psy-rdoq=2.00 / no-rd-refine / no-lossless / cbqpoffs=0 / crqpoffs=0 / rc=crf / crf=21.0 / qcomp=0.65 / qpstep=4 / stats-write=0 / stats-read=0 / vbv-maxrate=27000 / vbv-bufsize=27000 / vbv-init=0.9 / crf-max=0.0 / crf-min=0.0 / ipratio=1.40 / pbratio=1.30 / aq-mode=3 / aq-strength=0.80 / cutree / zone-count=0 / no-strict-cbr / qg-size=32 / no-rc-grain / qpmax=24 / qpmin=0 / no-const-vbv / sar=0 / overscan=0 / videoformat=5 / range=0 / colorprim=1 / transfer=2 / colormatrix=2 / chromaloc=0 / display-window=0 / max-cll=0,0 / min-luma=0 / max-luma=1023 / log2-max-poc-lsb=8 / vui-timing-info / vui-hrd-info / slices=1 / no-opt-qp-pps / no-opt-ref-list-length-pps / no-multi-pass-opt-rps / scenecut-bias=0.05 / no-opt-cu-delta-qp / no-aq-motion / no-hdr / no-hdr-opt / no-dhdr10-opt / analysis-reuse-level=5 / scale-factor=0 / refine-intra=0 / refine-inter=0 / refine-mv=0 / no-limit-sao / ctu-info=0 / no-lowpass-dct / refine-mv-type=0 / copy-pic=1
  35. Default                                  : Yes
  36. Forced                                   : No
  37. Color range                              : Limited
  38. Color primaries                          : BT.709
  39. Audio
  40. ID                                       : 2
  41. Format                                   : Opus
  42. Codec ID                                 : A_OPUS
  43. Duration                                 : 1 h 37 min
  44. Bit rate                                 : 392 kb/s
  45. Channel(s)                               : 6 channels
  46. Channel layout                           : L R C Ls Rs Cb LFE
  47. Sampling rate                            : 48.0 kHz
  48. Frame rate                               : 50.000 FPS (960 SPF)
  49. Compression mode                         : Lossy
  50. Stream size                              : 273 MiB (13%)
  51. Language                                 : English
  52. Default                                  : Yes
  53. Forced                                   : No
  54. Text #1
  55. ID                                       : 3
  56. Format                                   : ASS
  57. Codec ID                                 : S_TEXT/ASS
  58. Codec ID/Info                            : Advanced Sub Station Alpha
  59. Duration                                 : 1 h 29 min
  60. Bit rate                                 : 170 b/s
  61. Count of elements                        : 808
  62. Compression mode                         : Lossless
  63. Stream size                              : 112 KiB (0%)
  64. Title                                    : 简体&英文.ass
  65. Language                                 : Chinese
  66. Default                                  : Yes
  67. Forced                                   : No
  68. Text #2
  69. ID                                       : 4
  70. Format                                   : UTF-8
  71. Codec ID                                 : S_TEXT/UTF8
  72. Codec ID/Info                            : UTF-8 Plain Text
  73. Duration                                 : 1 h 29 min
  74. Bit rate                                 : 71 b/s
  75. Count of elements                        : 790
  76. Stream size                              : 47.3 KiB (0%)
  77. Title                                    : 简体&英文.srt
  78. Language                                 : Chinese
  79. Default                                  : No
  80. Forced                                   : No
  81. Text #3
  82. ID                                       : 5
  83. Format                                   : ASS
  84. Codec ID                                 : S_TEXT/ASS
  85. Codec ID/Info                            : Advanced Sub Station Alpha
  86. Duration                                 : 1 h 29 min
  87. Bit rate                                 : 75 b/s
  88. Count of elements                        : 802
  89. Compression mode                         : Lossless
  90. Stream size                              : 49.9 KiB (0%)
  91. Title                                    : 简体.ass
  92. Language                                 : Chinese
  93. Default                                  : No
  94. Forced                                   : No
  95. Text #4
  96. ID                                       : 6
  97. Format                                   : UTF-8
  98. Codec ID                                 : S_TEXT/UTF8
  99. Codec ID/Info                            : UTF-8 Plain Text
  100. Duration                                 : 1 h 29 min
  101. Bit rate                                 : 29 b/s
  102. Count of elements                        : 788
  103. Stream size                              : 19.7 KiB (0%)
  104. Title                                    : 简体.srt
  105. Language                                 : Chinese
  106. Default                                  : No
  107. Forced                                   : No
  108. Text #5
  109. ID                                       : 7
  110. Format                                   : ASS
  111. Codec ID                                 : S_TEXT/ASS
  112. Codec ID/Info                            : Advanced Sub Station Alpha
  113. Duration                                 : 1 h 29 min
  114. Bit rate                                 : 165 b/s
  115. Count of elements                        : 808
  116. Compression mode                         : Lossless
  117. Stream size                              : 109 KiB (0%)
  118. Language                                 : English
  119. Default                                  : No
  120. Forced                                   : No
  121. Text #6
  122. ID                                       : 8
  123. Format                                   : ASS
  124. Codec ID                                 : S_TEXT/ASS
  125. Codec ID/Info                            : Advanced Sub Station Alpha
  126. Duration                                 : 1 h 29 min
  127. Bit rate                                 : 170 b/s
  128. Count of elements                        : 808
  129. Compression mode                         : Lossless
  130. Stream size                              : 112 KiB (0%)
  131. Default                                  : No
  132. Forced                                   : No
  133. Text #7
  134. ID                                       : 9
  135. Format                                   : UTF-8
  136. Codec ID                                 : S_TEXT/UTF8
  137. Codec ID/Info                            : UTF-8 Plain Text
  138. Duration                                 : 1 h 29 min
  139. Bit rate                                 : 71 b/s
  140. Count of elements                        : 791
  141. Stream size                              : 46.8 KiB (0%)
  142. Default                                  : No
  143. Forced                                   : No
  144. Text #8
  145. ID                                       : 10
  146. Format                                   : ASS
  147. Codec ID                                 : S_TEXT/ASS
  148. Codec ID/Info                            : Advanced Sub Station Alpha
  149. Duration                                 : 1 h 29 min
  150. Bit rate                                 : 75 b/s
  151. Count of elements                        : 802
  152. Compression mode                         : Lossless
  153. Stream size                              : 49.9 KiB (0%)
  154. Default                                  : No
  155. Forced                                   : No
  156. Text #9
  157. ID                                       : 11
  158. Format                                   : UTF-8
  159. Codec ID                                 : S_TEXT/UTF8
  160. Codec ID/Info                            : UTF-8 Plain Text
  161. Duration                                 : 1 h 29 min
  162. Bit rate                                 : 29 b/s
  163. Count of elements                        : 794
  164. Stream size                              : 19.2 KiB (0%)
  165. Default                                  : No
  166. Forced                                   : No
  167. Text #10
  168. ID                                       : 12
  169. Format                                   : PGS
  170. Muxing mode                              : zlib
  171. Codec ID                                 : S_HDMV/PGS
  172. Codec ID/Info                            : Picture based subtitle format used on BDs/HD-DVDs
  173. Duration                                 : 1 h 27 min
  174. Bit rate                                 : 23.5 kb/s
  175. Count of elements                        : 1360
  176. Stream size                              : 14.7 MiB (1%)
  177. Language                                 : Chinese
  178. Default                                  : No
  179. Forced                                   : No
  180. Text #11
  181. ID                                       : 13
  182. Format                                   : PGS
  183. Muxing mode                              : zlib
  184. Codec ID                                 : S_HDMV/PGS
  185. Codec ID/Info                            : Picture based subtitle format used on BDs/HD-DVDs
  186. Duration                                 : 1 h 27 min
  187. Bit rate                                 : 22.0 kb/s
  188. Count of elements                        : 1360
  189. Stream size                              : 13.7 MiB (1%)
  190. Language                                 : Chinese
  191. Default                                  : No
  192. Forced                                   : No
  193. Menu
  194. 00:00:00.000                             : en:Chapter 1
  195. 00:11:02.620                             : en:Chapter 2
  196. 00:15:10.242                             : en:Chapter 3
  197. 00:20:14.379                             : en:Chapter 4
  198. 00:26:15.532                             : en:Chapter 5
  199. 00:33:00.979                             : en:Chapter 6
  200. 00:38:09.328                             : en:Chapter 7
  201. 00:41:51.133                             : en:Chapter 8
  202. 00:45:27.266                             : en:Chapter 9
  203. 00:49:39.893                             : en:Chapter 10
  204. 00:54:36.731                             : en:Chapter 11
  205. 01:01:02.450                             : en:Chapter 12
  206. 01:05:06.444                             : en:Chapter 13
  207. 01:11:54.768                             : en:Chapter 14
  208. 01:16:33.589                             : en:Chapter 15
  209. 01:27:24.239                             : en:Chapter 16





此处一般会放置磁力链或种子下载链接,不过此链接需要注册会员才能看到,点击“立即注册”
磁力链下载【下载链接仅对注册会员开放,登陆后可见】
BT9527电影天堂 1、BT9527电影天堂提供的BT文件均来源于互联网抓取,只供网友学习交流、技术提升使用。
2、我们遵守BitTorrent点对点协议原则,任何版权问题请联系原资源发布商,我们不处理任何版权纠纷,谢谢!如有争议请联系邮箱:BT9527#hotmail.com(#换成@)
3、如果您发现某页面或地址有错误,请联系站长邮箱BT9527#hotmail.com(#换成@),我们会尽快处理。您的热心是对BT9527电影天堂最大的支持。
4、本站建议去正规影院观看电影以支持电影行业发展。
最新回复 (0)

你可以在 登录 or 注册 后,对此帖发表评论!

返回
发新帖