潜伏[中文字幕].Insidious.2010.1080p.BluRay.HEVC.10bit-MiniHD 1.68GB

版主小s 3月前 154

✔资源类型:暂未分类   ✔电影年份:2010   ✔电影地区:欧美   ✔电影分类:惊悚

◎标  题 潜伏
◎译  名 儿凶(港) / 阴儿房(台)
◎片  名 Insidious
◎年  代 2010
◎产  地 美国 / 加拿大
◎类  别 惊悚 / 恐怖
◎语  言 英语
◎上映日期 2010-09-14(多伦多电影节) / 2011-04-01(美国)
◎IMDb评分 6.8/10 (295288人评价)
◎IMDb链接 https://www.imdb.com/title/tt1591095/
◎豆瓣评分 7.8/10 (131341人评价)
◎豆瓣链接 https://movie.douban.com/subject/4817901/
◎片  长 103分钟
◎导  演 温子仁 James Wan
◎编  剧 雷·沃纳尔 Leigh Whannell
◎演  员 罗丝·伯恩 Rose Byrne
       帕特里克·威尔森 Patrick Wilson
       泰·辛普金斯 Ty Simpkins
       林·沙烨 Lin Shaye
       雷·沃纳尔 Leigh Whannell
       安格斯·桑普森 Angus Sampson
       芭芭拉·赫希 Barbara Hershey
       安德鲁·阿斯特 Andrew Astor
       科比特·塔克 Corbett Tuck
       希瑟·托奎尼 Heather Tocquigny
       约瑟夫·比沙拉 Joseph Bishara
       J·拉罗斯 J. LaRose
       乔希·费尔德曼 Josh Feldman
       珍妮特苏萨 Jeannette Sousa
       Ben Woolf  Ben Woolf
       加雷特·瑞安 Garrett Ryan
       鲁本·普拉 Ruben Pla
       奥伦·佩利 Oren Peli
       杰森·布伦 Jason Blum
       鲁多维科·艾奥迪 Ludovico Einaudi
       约瑟夫·比沙拉 Joseph Bishara
       温子仁 James Wan

◎标  签 恐怖 / 惊悚 / 美国 / 温子仁 / 悬疑 / 灵异 / 美国电影 / 詹姆斯·温

◎简  介
  在高中担任教师的乔什·莱姆波特(帕特里克·威尔森 Patrick Wilson 饰)和身为自由音乐人的妻子兰娜(罗丝·拜恩 Rose Byrne 饰)拥有一个幸福的五口之家。然而自他们乔迁新居之后,恐慌和不安便尾随而至。尚在襁褓中的女儿凯莉经常莫名大哭,次子福斯特(Andrew Astor 饰)对卧室充满恐惧,而长子达尔顿(Ty Simpkins 饰)更在一次惊吓过后陷入长久的昏迷之中。在此之后,各种奇怪恐怖的事件接连发生。莱姆波特夫妇不胜其扰,精神几近崩溃,他们最终决定搬离这个不祥之地。                                    
                                但是一切并未就此结束,侵扰他们的魔鬼似乎尾随莱姆波特一家来至新的住所,更扬言要占据达尔顿的身体……
  1. ##### MediaInfo ######
  2. General
  3. Unique ID                                : 95034891658368701167956588511705111683 (0x477F0DEA94480AD56F04E0E832C31C83)
  4. Complete name                            : 潜伏1.Insidious.2010.1080p.BluRay.HEVC.10bit-MiniHD.mkv
  5. Format                                   : Matroska
  6. Format version                           : Version 4
  7. File size                                : 1.68 GiB
  8. Duration                                 : 1 h 42 min
  9. Overall bit rate                         : 2 349 kb/s
  10. Encoded date                             : UTC 2018-02-03 08:16:44
  11. Writing application                      : mkvmerge v20.0.0 ('I Am The Sun') 64-bit
  12. Writing library                          : libebml v1.3.5 + libmatroska v1.4.8
  13. Cover                                    : Yes
  14. Attachments                              : cover.jpg
  15. Video
  16. ID                                       : 1
  17. Format                                   : HEVC
  18. Format/Info                              : High Efficiency Video Coding
  19. Format profile                           : Main 10@L4@High
  20. Codec ID                                 : V_MPEGH/ISO/HEVC
  21. Duration                                 : 1 h 42 min
  22. Bit rate                                 : 2 010 kb/s
  23. Width                                    : 1 920 pixels
  24. Height                                   : 800 pixels
  25. Display aspect ratio                     : 2.40:1
  26. Frame rate mode                          : Constant
  27. Frame rate                               : 23.976 (24000/1001/53354) FPS
  28. Color space                              : YUV
  29. Chroma subsampling                       : 4:2:0
  30. Bit depth                                : 10 bits
  31. Bits/(Pixel*Frame)                       : 0.055
  32. Stream size                              : 1.44 GiB (86%)
  33. Writing library                          : x265 2.6+37-1949157705ce:[Windows][MSVC 1912][64 bit] 10bit
  34. Encoding settings                        : cpuid=533541173503 / frame-threads=3 / numa-pools=8 / wpp / no-pmode / no-pme / no-psnr / no-ssim / log-level=2 / input-csp=1 / input-res=1920x800 / interlace=0 / total-frames=0 / level-idc=0 / high-tier=1 / uhd-bd=0 / ref=4 / no-allow-non-conformance / no-repeat-headers / annexb / no-aud / no-hrd / info / hash=0 / no-temporal-layers / no-open-gop / min-keyint=1 / keyint=600 / gop-lookahead=0 / bframes=6 / b-adapt=2 / b-pyramid / bframe-bias=0 / rc-lookahead=25 / lookahead-slices=4 / NTMzNTQ=uuDQuD2mJt9fsCf / scenecut=40 / radl=0 / no-intra-refresh / ctu=64 / min-cu-size=8 / no-rect / no-amp / max-tu-size=32 / tu-inter-depth=1 / tu-intra-depth=1 / limit-tu=0 / rdoq-level=2 / dynamic-rd=0.00 / no-ssim-rd / signhide / no-tskip / nr-intra=0 / nr-inter=0 / no-constrained-intra / strong-intra-smoothing / max-merge=3 / limit-refs=3 / limit-modes / me=3 / subme=3 / merange=44 / temporal-mvp / weightp / weightb / no-analyze-src-pics / deblock=0:0 / no-sao / no-sao-non-deblock / rd=4 / no-early-skip / rskip / no-fast-intra / no-tskip-fast / no-cu-lossless / no-b-intra / no-splitrd-skip / rdpenalty=0 / psy-rd=3.00 / psy-rdoq=2.00 / no-rd-refine / no-lossless / cbqpoffs=0 / crqpoffs=0 / rc=crf / crf=20.4 / qcomp=0.65 / qpstep=4 / stats-write=0 / stats-read=0 / vbv-maxrate=22000 / vbv-bufsize=27000 / vbv-init=0.9 / crf-max=0.0 / crf-min=0.0 / ipratio=1.40 / pbratio=1.30 / aq-mode=3 / aq-strength=0.80 / cutree / zone-count=0 / no-strict-cbr / qg-size=32 / no-rc-grain / qpmax=24 / qpmin=0 / no-const-vbv / sar=0 / overscan=0 / videoformat=5 / range=0 / colorprim=1 / transfer=2 / colormatrix=2 / chromaloc=0 / display-window=0 / max-cll=0,0 / min-luma=0 / max-luma=1023 / log2-max-poc-lsb=8 / vui-timing-info / vui-hrd-info / slices=1 / no-opt-qp-pps / no-opt-ref-list-length-pps / no-multi-pass-opt-rps / scenecut-bias=0.05 / no-opt-cu-delta-qp / no-aq-motion / no-hdr / no-hdr-opt / no-dhdr10-opt / analysis-reuse-level=5 / scale-factor=0 / refine-intra=0 / refine-inter=0 / refine-mv=0 / no-limit-sao / ctu-info=0 / no-lowpass-dct / refine-mv-type=0 / copy-pic=1
  35. Default                                  : Yes
  36. Forced                                   : No
  37. Color range                              : Limited
  38. Color primaries                          : BT.709
  39. Audio
  40. ID                                       : 2
  41. Format                                   : Opus
  42. Codec ID                                 : A_OPUS
  43. Duration                                 : 1 h 42 min
  44. Bit rate                                 : 336 kb/s
  45. Channel(s)                               : 6 channels
  46. Channel layout                           : L R C Ls Rs Cb LFE
  47. Sampling rate                            : 48.0 kHz
  48. Frame rate                               : 50.000 FPS (960 SPF)
  49. Compression mode                         : Lossy
  50. Delay relative to video                  : 47 ms
  51. Stream size                              : 247 MiB (14%)
  52. Language                                 : English
  53. Default                                  : Yes
  54. Forced                                   : No
  55. Text
  56. ID                                       : 3
  57. Format                                   : UTF-8
  58. Codec ID                                 : S_TEXT/UTF8
  59. Codec ID/Info                            : UTF-8 Plain Text
  60. Duration                                 : 1 h 32 min
  61. Bit rate                                 : 29 b/s
  62. Count of elements                        : 594
  63. Stream size                              : 20.1 KiB (0%)
  64. Language                                 : Chinese
  65. Default                                  : Yes
  66. Forced                                   : No
  67. Menu
  68. 00:00:00.000                             : en:Chapter 1
  69. 00:07:11.833                             : en:Chapter 2
  70. 00:12:41.708                             : en:Chapter 3
  71. 00:18:28.083                             : en:Chapter 4
  72. 00:24:29.625                             : en:Chapter 5
  73. 00:31:14.291                             : en:Chapter 6
  74. 00:35:56.666                             : en:Chapter 7
  75. 00:40:50.250                             : en:Chapter 8
  76. 00:50:07.291                             : en:Chapter 9
  77. 00:59:12.458                             : en:Chapter 10
  78. 01:01:06.125                             : en:Chapter 11
  79. 01:05:57.708                             : en:Chapter 12
  80. 01:14:22.875                             : en:Chapter 13
  81. 01:22:23.541                             : en:Chapter 14
  82. 01:30:06.041                             : en:Chapter 15
  83. 01:38:46.416                             : en:Chapter 16



此处一般会放置磁力链或种子下载链接,不过此链接需要注册会员才能看到,点击“立即注册”
磁力链下载【下载链接仅对注册会员开放,登陆后可见】
BT9527电影天堂 1、BT9527电影天堂提供的BT文件均来源于互联网抓取,只供网友学习交流、技术提升使用。
2、我们遵守BitTorrent点对点协议原则,任何版权问题请联系原资源发布商,我们不处理任何版权纠纷,谢谢!如有争议请联系邮箱:BT9527#hotmail.com(#换成@)
3、如果您发现某页面或地址有错误,请联系站长邮箱BT9527#hotmail.com(#换成@),我们会尽快处理。您的热心是对BT9527电影天堂最大的支持。
4、本站建议去正规影院观看电影以支持电影行业发展。
最新回复 (0)

你可以在 登录 or 注册 后,对此帖发表评论!

返回