湮灭[简繁英特效字幕].Annihilation.2018.BluRay.1080p.x265.10bit-MiniHD 4.06GB

版主小s 10天前 43

湮灭[简繁英特效字幕].Annihilation.2018.BluRay.1080p.x265.10bit-MiniHD 4.06GB

◎标  题 湮灭
◎译  名 灭。境(港) / 灭绝(台) / 遗落的南境1:湮灭
◎片  名 Annihilation
◎年  代 2018
◎产  地 美国 / 英国
◎类  别 剧情 / 科幻 / 惊悚
◎语  言 英语
◎上映日期 2018-04-13(中国大陆) / 2018-02-23(美国)
◎IMDb评分 6.8/10 (302551人评价)
◎IMDb链接 https://www.imdb.com/title/tt2798920/
◎豆瓣评分 7.2/10 (328409人评价)
◎豆瓣链接 https://movie.douban.com/subject/26384741/
◎片  长 115分钟
◎导  演 亚历克斯·加兰 Alex Garland
◎编  剧 亚历克斯·加兰 Alex Garland
       杰夫·万德米尔 Jeff VanderMeer
◎演  员 娜塔莉·波特曼 Natalie Portman
       詹妮弗·杰森·李 Jennifer Jason Leigh
       吉娜·罗德里格兹 Gina Rodriguez
       泰莎·汤普森 Tessa Thompson
       奥斯卡·伊萨克 Oscar Isaac
       水野索诺娅 Sonoya Mizuno
       大卫·吉亚西 David Gyasi
       图娃·诺沃妮 Tuva Novotny
       本尼迪克特·王 Benedict Wong
       约翰·施瓦布 John Schwab
       萨米·海曼 Sammy Hayman
       乔希·丹福德 Josh Danford
       克里斯汀·麦加里蒂 Kristen McGarrity
       克里斯塔·克拉克 Crystal Clarke
       柯斯莫·贾维斯 Cosmo Jarvis
       库姆德潘特 Kumud Pant
       伊莱·布什 Eli Bush
       Ben Salisbury Ben Salisbury
       吉奥夫·巴罗 Geoff Barrow
       罗伯·哈迪 Rob Hardy
       卡洛斯·华达德 Carlos Ciudad
       亚当·卢瑟福 Adam Rutherford

◎标  签 科幻 / 惊悚 / 悬疑 / 美国 / 2018 / 娜塔莉 / 小说改编 / 恐怖

◎简  介
  莉娜(娜塔莉·波特曼 Natalie Portman 饰)是一名生物学家,一年前,她的丈夫凯恩(奥斯卡·伊萨克 Oscar Isaac 饰)在参加一项秘密任务后神秘失踪,这一年间,莉娜一直生活在悲伤之中。某天,失忆的凯恩忽然出现在了莉娜的面前,之后晕倒被送入了医院。在那里,莉娜遇见了文崔斯博士(詹妮弗·杰森·李 Jennifer Jason Leigh 饰)。                                    
                                博士告诉莉娜,凯恩被派往了一块被“闪光”笼罩的未知区域,三年间,无数的队伍被派往区域内进行勘探,只有凯恩一人活着回来了。不仅如此,“闪光”正在不断的扩大。为了查明事情的真相,莉娜自愿加入了下一批被派遣的队伍之中,和她一同前往的,除了文崔斯博士外,还有安雅(吉娜·罗德里格兹 Gina Rodriguez 饰)和乔茜(泰莎·汤普森 Tessa Thompson 饰)。

  1. ##### MediaInfo ######
  2. General
  3. Unique ID                                : 108849540788372744963907461833064108450 (0x51E3A8B477A1F0286520A669712ED1A2)
  4. Complete name                            : Annihilation.2018.BluRay.1080p.x265.10bit-MiniHD.mkv
  5. Format                                   : Matroska
  6. Format version                           : Version 4
  7. File size                                : 4.06 GiB
  8. Duration                                 : 1 h 55 min
  9. Overall bit rate                         : 5 052 kb/s
  10. Encoded date                             : UTC 2018-05-23 15:12:12
  11. Writing application                      : mkvmerge v23.0.0 ('The Bride Said No') 64-bit
  12. Writing library                          : libebml v1.3.6 + libmatroska v1.4.9
  13. Video
  14. ID                                       : 1
  15. Format                                   : HEVC
  16. Format/Info                              : High Efficiency Video Coding
  17. Format profile                           : Main 10@L4.1@High
  18. Codec ID                                 : V_MPEGH/ISO/HEVC
  19. Duration                                 : 1 h 55 min
  20. Bit rate                                 : 4 380 kb/s
  21. Width                                    : 1 920 pixels
  22. Height                                   : 802 pixels
  23. Display aspect ratio                     : 2.40:1
  24. Frame rate mode                          : Constant
  25. Frame rate                               : 23.976 (24000/1001/53354) FPS
  26. Color space                              : YUV
  27. Chroma subsampling                       : 4:2:0
  28. Bit depth                                : 10 bits
  29. Bits/(Pixel*Frame)                       : 0.119
  30. Stream size                              : 3.52 GiB (87%)
  31. Writing library                          : x265 2.7+1-2aa737a99f51:[Windows][GCC 7.3.0][64 bit] 10bit
  32. Encoding settings                        : cpuid=533541050111 / frame-threads=4 / numa-pools=16 / wpp / no-pmode / no-pme / no-psnr / no-ssim / log-level=2 / csv / csv-log-level=0 / input-csp=1 / input-res=1920x802 / interlace=0 / total-frames=0 / level-idc=0 / high-tier=1 / uhd-bd=0 / ref=5 / no-allow-non-conformance / no-repeat-headers / annexb / no-aud / no-hrd / info / hash=0 / no-temporal-layers / no-open-gop / min-keyint=1 / keyint=360 / gop-lookahead=0 / bframes=8 / b-adapt=2 / b-pyramid / bframe-bias=0 / rc-lookahead=60 / lookahead-slices=4 / NTMzNTQ=uuDQuD2mJt9fsCf / scenecut=40 / radl=0 / no-intra-refresh / ctu=32 / min-cu-size=8 / no-rect / no-amp / max-tu-size=16 / tu-inter-depth=2 / tu-intra-depth=2 / limit-tu=4 / rdoq-level=2 / dynamic-rd=0.00 / ssim-rd / signhide / no-tskip / nr-intra=0 / nr-inter=0 / no-constrained-intra / no-strong-intra-smoothing / max-merge=3 / limit-refs=2 / limit-modes / me=3 / subme=5 / merange=25 / temporal-mvp / weightp / weightb / no-analyze-src-pics / deblock=-1:-1 / no-sao / no-sao-non-deblock / rd=4 / no-early-skip / rskip / no-fast-intra / no-tskip-fast / no-cu-lossless / b-intra / no-splitrd-skip / rdpenalty=1 / psy-rd=0.00 / psy-rdoq=4.00 / no-rd-refine / no-lossless / cbqpoffs=-2 / crqpoffs=-2 / rc=crf / crf=18.0 / qcomp=0.70 / qpstep=4 / stats-write=0 / stats-read=0 / vbv-maxrate=40000 / vbv-bufsize=40000 / vbv-init=0.9 / crf-max=0.0 / crf-min=0.0 / ipratio=1.40 / pbratio=1.30 / aq-mode=3 / aq-strength=0.80 / cutree / zone-count=0 / no-strict-cbr / qg-size=16 / no-rc-grain / qpmax=69 / qpmin=0 / no-const-vbv / sar=0 / overscan=0 / videoformat=5 / range=0 / colorprim=1 / transfer=2 / colormatrix=2 / chromaloc=0 / display-window=0 / max-cll=0,0 / min-luma=0 / max-luma=1023 / log2-max-poc-lsb=8 / vui-timing-info / vui-hrd-info / slices=1 / no-opt-qp-pps / no-opt-ref-list-length-pps / no-multi-pass-opt-rps / scenecut-bias=0.05 / no-opt-cu-delta-qp / no-aq-motion / no-hdr / no-hdr-opt / no-dhdr10-opt / analysis-reuse-level=5 / scale-factor=0 / refine-intra=0 / refine-inter=0 / refine-mv=0 / no-limit-sao / ctu-info=0 / no-lowpass-dct / refine-mv-type=0 / copy-pic=1
  33. Default                                  : Yes
  34. Forced                                   : No
  35. Color range                              : Limited
  36. Color primaries                          : BT.709
  37. Audio
  38. ID                                       : 2
  39. Format                                   : AC-3
  40. Format/Info                              : Audio Coding 3
  41. Commercial name                          : Dolby Digital
  42. Codec ID                                 : A_AC3
  43. Duration                                 : 1 h 55 min
  44. Bit rate mode                            : Constant
  45. Bit rate                                 : 640 kb/s
  46. Channel(s)                               : 6 channels
  47. Channel layout                           : L R C LFE Ls Rs
  48. Sampling rate                            : 48.0 kHz
  49. Frame rate                               : 31.250 FPS (1536 SPF)
  50. Compression mode                         : Lossy
  51. Stream size                              : 526 MiB (13%)
  52. Title                                    : 英语
  53. Language                                 : English
  54. Service kind                             : Complete Main
  55. Default                                  : Yes
  56. Forced                                   : No
  57. Text #1
  58. ID                                       : 3
  59. Format                                   : PGS
  60. Muxing mode                              : zlib
  61. Codec ID                                 : S_HDMV/PGS
  62. Codec ID/Info                            : Picture based subtitle format used on BDs/HD-DVDs
  63. Duration                                 : 1 h 48 min
  64. Bit rate                                 : 18.5 kb/s
  65. Count of elements                        : 2413
  66. Stream size                              : 14.3 MiB (0%)
  67. Title                                    : 简英特效
  68. Language                                 : Chinese
  69. Default                                  : Yes
  70. Forced                                   : No
  71. Text #2
  72. ID                                       : 4
  73. Format                                   : PGS
  74. Muxing mode                              : zlib
  75. Codec ID                                 : S_HDMV/PGS
  76. Codec ID/Info                            : Picture based subtitle format used on BDs/HD-DVDs
  77. Duration                                 : 1 h 46 min
  78. Bit rate                                 : 21.7 kb/s
  79. Count of elements                        : 2016
  80. Stream size                              : 16.5 MiB (0%)
  81. Title                                    : 英语
  82. Language                                 : English
  83. Default                                  : No
  84. Forced                                   : No
  85. Text #3
  86. ID                                       : 5
  87. Format                                   : PGS
  88. Muxing mode                              : zlib
  89. Codec ID                                 : S_HDMV/PGS
  90. Codec ID/Info                            : Picture based subtitle format used on BDs/HD-DVDs
  91. Duration                                 : 1 h 47 min
  92. Bit rate                                 : 13.4 kb/s
  93. Count of elements                        : 1886
  94. Stream size                              : 10.3 MiB (0%)
  95. Title                                    : 繁中
  96. Language                                 : Chinese
  97. Default                                  : No
  98. Forced                                   : No
  99. Text #4
  100. ID                                       : 6
  101. Format                                   : PGS
  102. Muxing mode                              : zlib
  103. Codec ID                                 : S_HDMV/PGS
  104. Codec ID/Info                            : Picture based subtitle format used on BDs/HD-DVDs
  105. Duration                                 : 1 h 47 min
  106. Bit rate                                 : 13.1 kb/s
  107. Count of elements                        : 1886
  108. Stream size                              : 10.0 MiB (0%)
  109. Title                                    : 简中
  110. Language                                 : Chinese
  111. Default                                  : No
  112. Forced                                   : No
  113. Menu
  114. 00:00:00.000                             : en:00:00:00.000
  115. 00:05:09.309                             : en:00:05:09.309
  116. 00:11:39.157                             : en:00:11:39.157
  117. 00:17:06.692                             : en:00:17:06.692
  118. 00:24:08.656                             : en:00:24:08.656
  119. 00:28:59.446                             : en:00:28:59.446
  120. 00:37:24.242                             : en:00:37:24.242
  121. 00:41:59.517                             : en:00:41:59.517
  122. 00:49:11.448                             : en:00:49:11.448
  123. 00:56:06.405                             : en:00:56:06.405
  124. 01:03:22.298                             : en:01:03:22.298
  125. 01:10:25.012                             : en:01:10:25.012
  126. 01:17:21.929                             : en:01:17:21.929
  127. 01:22:20.477                             : en:01:22:20.477
  128. 01:30:26.296                             : en:01:30:26.296
  129. 01:38:48.589                             : en:01:38:48.589
  130. 01:43:58.357                             : en:01:43:58.357
  131. 01:48:14.279                             : en:01:48:14.279






此处一般会放置磁力链或种子下载链接,不过此链接需要注册会员才能看到,点击“立即注册”
磁力链下载【下载链接仅对注册会员开放,登陆后可见】

BT9527电影天堂 1、BT9527电影天堂提供的BT文件均来源于互联网抓取,只供网友学习交流、技术提升使用。
2、我们遵守BitTorrent点对点协议原则,任何版权问题请联系原资源发布商,我们不处理任何版权纠纷,谢谢!如有争议请联系邮箱:BT9527#hotmail.com(#换成@)
3、如果您发现某页面或地址有错误,请联系站长邮箱BT9527#hotmail.com(#换成@),我们会尽快处理。您的热心是对BT9527电影天堂最大的支持。
4、本站建议去正规影院观看电影以支持电影行业发展。
最新回复 (0)

你可以在 登录 or 注册 后,对此帖发表评论!

返回
发新帖