游侠[国粤英多音轨/简繁英字幕].War.2007.BluRay.1080p.x265.10bit.3Audio-MiniHD 3.41GB

版主小s 3月前 154

◎标  题 游侠
◎译  名 玩命对战(台) / 搏·激·战(港) / Rogue Assassin
◎片  名 War
◎年  代 2007
◎产  地 美国 / 加拿大
◎类  别 动作 / 惊悚 / 犯罪
◎语  言 英语 / 汉语普通话 / 日语 / 粤语
◎上映日期 2007-08-24(美国)
◎IMDb评分 6.2/10 (90345人评价)
◎IMDb链接 https://www.imdb.com/title/tt0499556/
◎豆瓣评分 6.5/10 (29943人评价)
◎豆瓣链接 https://movie.douban.com/subject/1507151/
◎片  长 103分钟
◎导  演 菲利普·G·阿特威尔 Philip G. Atwell
◎编  剧 李·安东尼·史密斯 Lee Anthony Smith
       格雷戈里·J·布拉德利 Gregory J. Bradley
◎演  员 李连杰 Jet Li
       杰森·斯坦森 Jason Statham
       尊龙 John Lone
       戴文青木 Devon Aoki
       路易斯·古兹曼 Luis Guzmán
       绍尔·鲁宾内克 Saul Rubinek
       石桥凌 Ryo Ishibashi
       姜成镐 Sung Kang
       马修·圣·帕特里克 Mathew St. Patrick
       娜丁·维拉兹盖兹 Nadine Velazquez
       安德里亚·罗斯 Andrea Roth
       郑浩南 Mark Cheng
       小杉健 Kane Kosugi
       特瑞·陈 Terry Chen
       肯尼斯·崔 Kenneth Choi
       娜迪亚·法尔丝 Nadia Farès
       张鹏 Peng Zhang
       神奈川宏幸 Hiro Kanagawa
       劳洛·查坦德 Lauro Chartrand
       尼古拉斯·伊利亚 Nicholas Elia
       埃里克·李塞德 Eric Keenleyside
       艾伦·坡尔 Aaron Pearl
       约翰·诺瓦克 John Novak
       内尔斯·莱纳森 Nels Lennarson
       多恩·列夫 Don Lew
       Mark Louie Mark Louie
       Derek Lowe Derek Lowe
       Larry Lam Larry Lam
       克里斯托弗·佩泽尔 Christopher Petzel
       布莱恩·泰勒 Brian Tyler
       皮埃尔·莫瑞尔 Pierre Morel
       Scott Richter Scott Richter
       辛西娅·安·莎莫斯 Cynthia Ann Summers
       Jill Bailey Jill Bailey
       元奎 Corey Yuen
       Trevor McWhinney Trevor McWhinney
       Gordon Piper Gordon Piper
       布莱恩·福尔摩斯 Brian Holmes
       兰迪·布朗 Randy Brown
       罗伯特·明斯克 Robert Minsk
       吉姆·戈尔曼 Jim Gorman
       约翰·T·范弗利特 John T. Van Vliet
       Scott Dewis Scott Dewis
       Spencer Levy Spencer Levy
       John Cassella John Cassella
       雷·麦金太尔 Ray McIntyre Jr.

◎简  介
  故事发生在亚洲黑社会势力强大的美国旧金山。FBI亚裔警探汤姆为了救同事杰克(杰森·斯坦森 饰)击杀了一名黑社会杀手,引来全家的杀身之祸。当杰克来到汤姆的度假小屋时,汤姆一家已经被烧为灰烬。 汤姆一家的惨死成了杰克心中永远无法弥补的遗憾,时时刻刻折磨这他。 事发三年后,杰克在调查各帮派一些核心人物的命案时,发现一个叫罗杰(李连杰 饰)的杀手,他头脑冷静、神出鬼没、枪法精准,表面上拿着中国帮会的钱,背地里为日本帮会服务,却不服从命令放走了中国老大的妻女 随着调查的深入,罗杰的秘密被一一揭开,杰克在震惊的同时,也不得不重新面对当年汤姆一家惨死的真相。

  1. ##### MediaInfo ######
  2. General
  3. Unique ID                                : 238540103499186017534616602423210481295 (0xB375271FA5674F6F0690C01CF853168F)
  4. Complete name                            : War.2007.BluRay.1080p.x265.10bit.3Audio-MiniHD.mkv
  5. Format                                   : Matroska
  6. Format version                           : Version 4
  7. File size                                : 3.40 GiB
  8. Duration                                 : 1 h 43 min
  9. Overall bit rate                         : 4 732 kb/s
  10. Encoded date                             : UTC 2018-04-14 13:48:34
  11. Writing application                      : mkvmerge v20.0.0 ('I Am The Sun') 64-bit
  12. Writing library                          : libebml v1.3.5 + libmatroska v1.4.8
  13. Video
  14. ID                                       : 1
  15. Format                                   : HEVC
  16. Format/Info                              : High Efficiency Video Coding
  17. Format profile                           : Main 10@L4@Main
  18. Codec ID                                 : V_MPEGH/ISO/HEVC
  19. Duration                                 : 1 h 43 min
  20. Bit rate                                 : 3 422 kb/s
  21. Width                                    : 1 918 pixels
  22. Height                                   : 800 pixels
  23. Display aspect ratio                     : 2.40:1
  24. Frame rate mode                          : Constant
  25. Frame rate                               : 23.976 (24000/1001/53354) FPS
  26. Color space                              : YUV
  27. Chroma subsampling                       : 4:2:0
  28. Bit depth                                : 10 bits
  29. Bits/(Pixel*Frame)                       : 0.093
  30. Stream size                              : 2.46 GiB (72%)
  31. Writing library                          : x265 2.7+1-2aa737a99f51:[Windows][GCC 7.3.0][64 bit] 10bit
  32. Encoding settings                        : cpuid=533541173503 / frame-threads=3 / numa-pools=8 / wpp / no-pmode / no-pme / no-psnr / no-ssim / log-level=2 / csv / csv-log-level=0 / input-csp=1 / input-res=1918x800 / interlace=0 / total-frames=148177 / level-idc=0 / high-tier=1 / uhd-bd=0 / ref=5 / no-allow-non-conformance / no-repeat-headers / annexb / no-aud / no-hrd / info / hash=0 / no-temporal-layers / no-open-gop / min-keyint=1 / keyint=360 / gop-lookahead=0 / bframes=9 / b-adapt=2 / b-pyramid / bframe-bias=0 / rc-lookahead=60 / lookahead-slices=4 / NTMzNTQ=uuDQuD2mJt9fsCf / scenecut=40 / radl=0 / no-intra-refresh / ctu=32 / min-cu-size=8 / rect / no-amp / max-tu-size=16 / tu-inter-depth=2 / tu-intra-depth=2 / limit-tu=4 / rdoq-level=1 / dynamic-rd=0.00 / ssim-rd / signhide / no-tskip / nr-intra=0 / nr-inter=0 / no-constrained-intra / no-strong-intra-smoothing / max-merge=3 / limit-refs=2 / limit-modes / me=3 / subme=5 / merange=25 / temporal-mvp / weightp / weightb / no-analyze-src-pics / deblock=-1:-1 / no-sao / no-sao-non-deblock / rd=4 / no-early-skip / rskip / no-fast-intra / no-tskip-fast / no-cu-lossless / b-intra / no-splitrd-skip / rdpenalty=1 / psy-rd=0.00 / psy-rdoq=5.00 / no-rd-refine / no-lossless / cbqpoffs=-2 / crqpoffs=-2 / rc=crf / crf=19.0 / qcomp=0.70 / qpstep=4 / stats-write=0 / stats-read=0 / ipratio=1.40 / pbratio=1.30 / aq-mode=2 / aq-strength=0.80 / cutree / zone-count=0 / no-strict-cbr / qg-size=16 / no-rc-grain / qpmax=69 / qpmin=0 / no-const-vbv / sar=0 / overscan=0 / videoformat=5 / range=0 / colorprim=1 / transfer=2 / colormatrix=2 / chromaloc=0 / display-window=0 / max-cll=0,0 / min-luma=0 / max-luma=1023 / log2-max-poc-lsb=8 / vui-timing-info / vui-hrd-info / slices=1 / no-opt-qp-pps / no-opt-ref-list-length-pps / no-multi-pass-opt-rps / scenecut-bias=0.05 / no-opt-cu-delta-qp / no-aq-motion / no-hdr / no-hdr-opt / no-dhdr10-opt / analysis-reuse-level=5 / scale-factor=0 / refine-intra=0 / refine-inter=0 / refine-mv=0 / no-limit-sao / ctu-info=0 / no-lowpass-dct / refine-mv-type=0 / copy-pic=1
  33. Language                                 : Chinese
  34. Default                                  : Yes
  35. Forced                                   : No
  36. Color range                              : Limited
  37. Color primaries                          : BT.709
  38. Audio #1
  39. ID                                       : 5
  40. Format                                   : AC-3
  41. Format/Info                              : Audio Coding 3
  42. Commercial name                          : Dolby Digital
  43. Codec ID                                 : A_AC3
  44. Duration                                 : 1 h 43 min
  45. Bit rate mode                            : Constant
  46. Bit rate                                 : 384 kb/s
  47. Channel(s)                               : 6 channels
  48. Channel layout                           : L R C LFE Ls Rs
  49. Sampling rate                            : 48.0 kHz
  50. Frame rate                               : 31.250 FPS (1536 SPF)
  51. Compression mode                         : Lossy
  52. Stream size                              : 283 MiB (8%)
  53. Title                                    : 粤语
  54. Language                                 : Chinese
  55. Service kind                             : Complete Main
  56. Default                                  : Yes
  57. Forced                                   : No
  58. Audio #2
  59. ID                                       : 6
  60. Format                                   : AC-3
  61. Format/Info                              : Audio Coding 3
  62. Commercial name                          : Dolby Digital
  63. Codec ID                                 : A_AC3
  64. Duration                                 : 1 h 43 min
  65. Bit rate mode                            : Constant
  66. Bit rate                                 : 192 kb/s
  67. Channel(s)                               : 2 channels
  68. Channel layout                           : L R
  69. Sampling rate                            : 48.0 kHz
  70. Frame rate                               : 31.250 FPS (1536 SPF)
  71. Compression mode                         : Lossy
  72. Stream size                              : 141 MiB (4%)
  73. Title                                    : 国语
  74. Language                                 : Chinese
  75. Service kind                             : Complete Main
  76. Default                                  : No
  77. Forced                                   : No
  78. Audio #3
  79. ID                                       : 7
  80. Format                                   : AC-3
  81. Format/Info                              : Audio Coding 3
  82. Commercial name                          : Dolby Digital
  83. Codec ID                                 : A_AC3
  84. Duration                                 : 1 h 43 min
  85. Bit rate mode                            : Constant
  86. Bit rate                                 : 640 kb/s
  87. Channel(s)                               : 6 channels
  88. Channel layout                           : L R C LFE Ls Rs
  89. Sampling rate                            : 48.0 kHz
  90. Frame rate                               : 31.250 FPS (1536 SPF)
  91. Compression mode                         : Lossy
  92. Stream size                              : 472 MiB (14%)
  93. Title                                    : 英文
  94. Language                                 : English
  95. Service kind                             : Complete Main
  96. Default                                  : No
  97. Forced                                   : No
  98. Text #1
  99. ID                                       : 2
  100. Format                                   : PGS
  101. Muxing mode                              : zlib
  102. Codec ID                                 : S_HDMV/PGS
  103. Codec ID/Info                            : Picture based subtitle format used on BDs/HD-DVDs
  104. Title                                    : 繁体
  105. Language                                 : Chinese
  106. Default                                  : Yes
  107. Forced                                   : No
  108. Text #2
  109. ID                                       : 3
  110. Format                                   : PGS
  111. Muxing mode                              : zlib
  112. Codec ID                                 : S_HDMV/PGS
  113. Codec ID/Info                            : Picture based subtitle format used on BDs/HD-DVDs
  114. Title                                    : 简体
  115. Language                                 : Chinese
  116. Default                                  : No
  117. Forced                                   : No
  118. Text #3
  119. ID                                       : 4
  120. Format                                   : PGS
  121. Muxing mode                              : zlib
  122. Codec ID                                 : S_HDMV/PGS
  123. Codec ID/Info                            : Picture based subtitle format used on BDs/HD-DVDs
  124. Title                                    : 英文
  125. Language                                 : English
  126. Default                                  : No
  127. Forced                                   : No
  128. Menu
  129. 00:00:00.000                             : en:Chapter 01
  130. 00:08:00.062                             : en:Chapter 02
  131. 00:11:57.216                             : en:Chapter 03
  132. 00:18:35.531                             : en:Chapter 04
  133. 00:24:18.999                             : en:Chapter 05
  134. 00:29:22.427                             : en:Chapter 06
  135. 00:39:51.555                             : en:Chapter 07
  136. 00:47:45.487                             : en:Chapter 08
  137. 00:54:25.720                             : en:Chapter 09
  138. 00:58:10.195                             : en:Chapter 10
  139. 01:02:45.720                             : en:Chapter 11
  140. 01:08:18.511                             : en:Chapter 12
  141. 01:15:43.205                             : en:Chapter 13
  142. 01:23:56.740                             : en:Chapter 14
  143. 01:31:33.321                             : en:Chapter 15
  144. 01:36:55.518                             : en:Chapter 16






此处一般会放置磁力链或种子下载链接,不过此链接需要注册会员才能看到,点击“立即注册”
磁力链下载【下载链接仅对注册会员开放,登陆后可见】

BT9527电影天堂 1、BT9527电影天堂提供的BT文件均来源于互联网抓取,只供网友学习交流、技术提升使用。
2、我们遵守BitTorrent点对点协议原则,任何版权问题请联系原资源发布商,我们不处理任何版权纠纷,谢谢!如有争议请联系邮箱:BT9527#hotmail.com(#换成@)
3、如果您发现某页面或地址有错误,请联系站长邮箱BT9527#hotmail.com(#换成@),我们会尽快处理。您的热心是对BT9527电影天堂最大的支持。
4、本站建议去正规影院观看电影以支持电影行业发展。
最新回复 (0)

你可以在 登录 or 注册 后,对此帖发表评论!

返回
发新帖