游戏之夜[简繁英字幕].Game.Night.2018.BluRay.1080p.x265.10bit-MiniHD 5.43GB

版主小s 7天前 52

✔资源类型:暂未分类   ✔电影年份:2018   ✔电影地区:欧美   ✔电影分类:喜剧

◎标  题 游戏之夜
◎译  名 游戏夜杀必死(台) / 今晚玩救你(港)
◎片  名 Game Night
◎年  代 2018
◎产  地 美国
◎类  别 喜剧 / 悬疑 / 犯罪
◎语  言 英语
◎上映日期 2018-02-23(美国)
◎IMDb评分 6.9/10 (222618人评价)
◎IMDb链接 https://www.imdb.com/title/tt2704998/
◎豆瓣评分 7.2/10 (61691人评价)
◎豆瓣链接 https://movie.douban.com/subject/26949241/
◎片  长 100分钟
◎导  演 约翰·弗朗西斯·戴利 John Francis Daley
       乔纳森·M·戈尔茨坦 Jonathan M. Goldstein
◎编  剧 马克·佩雷斯 Mark Perez
◎演  员 杰森·贝特曼 Jason Bateman
       瑞秋·麦克亚当斯 Rachel McAdams
       凯尔·钱德勒 Kyle Chandler
       莎朗·豪根 Sharon Horgan
       比利·马格努森 Billy Magnussen
       拉蒙尼·莫里斯 Lamorne Morris
       凯莉·班伯里 Kylie Bunbury
       杰西·普莱蒙 Jesse Plemons
       迈克尔·C·豪尔 Michael C. Hall
       丹尼·赫斯顿 Danny Huston
       切尔西·帕瑞蒂 Chelsea Peretti
       卡米利·陈 Camille Chen
       泽瑞克·威廉姆斯 Zerrick Williams
       约书亚·米克尔 Joshua Mikel
       R·F·戴利 R.F. Daley
       约翰·弗朗西斯·戴利 John Francis Daley
       迈克尔·西里尔·克赖顿 Michael Cyril Creighton
       布鲁克·杰伊·泰勒 Brooke Jaye Taylor
       乔纳森·戈德斯坦 Jonathan Goldstein
       娜塔莎皓尔 Natasha Hall
       凯碧·伯德斯 Kabby Borders
       斯蒂夫·维亭 Steve Witting
       奥利维亚 Olivia
       罗宾·戴克 Robin Dyke
       雷纳·加拉赫 Renah Gallagher
       柯蒂斯·莱昂斯 Curtis Lyons
       格雷丝·万 Grace Wan
       玛丽亚·Z·威尔逊 Maria Z. Wilson
       杰弗里·怀特 Jeffrey Wright
       迈克尔·大卫·育尔 Michael David Yuhl
       约翰·戴维斯 John Davis
       克里夫·马丁内斯 Cliff Martinez

◎标  签 喜剧 / 美国 / 悬疑 / 搞笑 / 黑色幽默 / 犯罪 / 2018 / 动作

◎简  介
  马克思(贝特曼饰)的兄弟布鲁克斯(钱德勒饰)筹划“谋杀”派对后却遭绑架,马克思、安妮(麦克亚当斯饰)以为这只是一场游戏,但显然他们已陷入困境。
  1. ##### MediaInfo ######
  2. General
  3. Unique ID                                : 209823342167531512277389551845721409269 (0x9DDA817A386E3CE7826E4C40240686F5)
  4. Complete name                            : Game.Night.2018.BluRay.1080p.x265.10bit-MiniHD.mkv
  5. Format                                   : Matroska
  6. Format version                           : Version 4
  7. File size                                : 5.43 GiB
  8. Duration                                 : 1 h 40 min
  9. Overall bit rate                         : 7 715 kb/s
  10. Encoded date                             : UTC 2018-06-02 09:57:23
  11. Writing application                      : mkvmerge v18.0.0 ('Apricity') 64-bit
  12. Writing library                          : libebml v1.3.5 + libmatroska v1.4.8
  13. Video
  14. ID                                       : 1
  15. Format                                   : HEVC
  16. Format/Info                              : High Efficiency Video Coding
  17. Format profile                           : Main 10@L4@Main
  18. Codec ID                                 : V_MPEGH/ISO/HEVC
  19. Duration                                 : 1 h 40 min
  20. Bit rate                                 : 6 914 kb/s
  21. Width                                    : 1 920 pixels
  22. Height                                   : 800 pixels
  23. Display aspect ratio                     : 2.40:1
  24. Frame rate mode                          : Constant
  25. Frame rate                               : 23.976 (24000/1001/53354) FPS
  26. Color space                              : YUV
  27. Chroma subsampling                       : 4:2:0
  28. Bit depth                                : 10 bits
  29. Bits/(Pixel*Frame)                       : 0.188
  30. Stream size                              : 4.83 GiB (89%)
  31. Writing library                          : x265 2.6+14-f09f3b4a2115:[Windows][GCC 7.2.0][64 bit] 10bit
  32. Encoding settings                        : cpuid=533541173503 / frame-threads=3 / numa-pools=8 / wpp / no-pmode / no-pme / no-psnr / no-ssim / log-level=2 / csvfn=E:\迅雷下载\game / night.log / csv-log-level=0 / input-csp=1 / input-res=1920x800 / interlace=0 / total-frames=143995 / level-idc=0 / high-tier=1 / uhd-bd=0 / ref=5 / no-allow-non-conformance / no-repeat-headers / annexb / no-aud / no-hrd / info / hash=0 / no-temporal-layers / no-open-gop / min-keyint=1 / keyint=360 / gop-lookahead=0 / bframes=8 / b-adapt=2 / b-pyramid / bframe-bias=0 / rc-lookahead=40 / lookahead-slices=4 / NTMzNTQ=uuDQuD2mJt9fsCf / scenecut=40 / no-intra-refresh / ctu=32 / min-cu-size=8 / rect / no-amp / max-tu-size=16 / tu-inter-depth=2 / tu-intra-depth=2 / limit-tu=4 / rdoq-level=1 / dynamic-rd=0.00 / ssim-rd / signhide / no-tskip / nr-intra=0 / nr-inter=0 / no-constrained-intra / no-strong-intra-smoothing / max-merge=3 / limit-refs=2 / limit-modes / me=3 / subme=5 / merange=25 / temporal-mvp / weightp / weightb / no-analyze-src-pics / deblock=-1:-1 / no-sao / no-sao-non-deblock / rd=4 / no-early-skip / rskip / no-fast-intra / no-tskip-fast / no-cu-lossless / b-intra / no-splitrd-skip / rdpenalty=1 / psy-rd=0.00 / psy-rdoq=5.00 / no-rd-refine / analysis-reuse-mode=0 / no-lossless / cbqpoffs=-2 / crqpoffs=-2 / rc=crf / crf=18.0 / qcomp=0.65 / qpstep=4 / stats-write=0 / stats-read=0 / ipratio=1.40 / pbratio=1.30 / aq-mode=2 / aq-strength=0.80 / cutree / zone-count=0 / no-strict-cbr / qg-size=16 / no-rc-grain / qpmax=69 / qpmin=0 / no-const-vbv / sar=0 / overscan=0 / videoformat=5 / range=0 / colorprim=1 / transfer=2 / colormatrix=2 / chromaloc=0 / display-window=0 / max-cll=0,0 / min-luma=0 / max-luma=1023 / log2-max-poc-lsb=8 / vui-timing-info / vui-hrd-info / slices=1 / no-opt-qp-pps / no-opt-ref-list-length-pps / no-multi-pass-opt-rps / scenecut-bias=0.05 / no-opt-cu-delta-qp / no-aq-motion / no-hdr / no-hdr-opt / no-dhdr10-opt / analysis-reuse-level=5 / scale-factor=0 / refine-intra=0 / refine-inter=0 / refine-mv=0 / no-limit-sao / ctu-info=0 / no-lowpass-dct / refine-mv-type=0 / copy-pic=1
  33. Default                                  : Yes
  34. Forced                                   : No
  35. Color range                              : Limited
  36. Color primaries                          : BT.709
  37. Audio
  38. ID                                       : 2
  39. Format                                   : AC-3
  40. Format/Info                              : Audio Coding 3
  41. Commercial name                          : Dolby Digital
  42. Codec ID                                 : A_AC3
  43. Duration                                 : 1 h 40 min
  44. Bit rate mode                            : Constant
  45. Bit rate                                 : 640 kb/s
  46. Channel(s)                               : 6 channels
  47. Channel layout                           : L R C LFE Ls Rs
  48. Sampling rate                            : 48.0 kHz
  49. Frame rate                               : 31.250 FPS (1536 SPF)
  50. Compression mode                         : Lossy
  51. Stream size                              : 458 MiB (8%)
  52. Language                                 : English
  53. Service kind                             : Complete Main
  54. Default                                  : Yes
  55. Forced                                   : No
  56. Text #1
  57. ID                                       : 3
  58. Format                                   : PGS
  59. Muxing mode                              : zlib
  60. Codec ID                                 : S_HDMV/PGS
  61. Codec ID/Info                            : Picture based subtitle format used on BDs/HD-DVDs
  62. Duration                                 : 1 h 39 min
  63. Bit rate                                 : 68.8 kb/s
  64. Count of elements                        : 4412
  65. Stream size                              : 48.8 MiB (1%)
  66. Language                                 : English
  67. Default                                  : No
  68. Forced                                   : No
  69. Text #2
  70. ID                                       : 4
  71. Format                                   : PGS
  72. Muxing mode                              : zlib
  73. Codec ID                                 : S_HDMV/PGS
  74. Codec ID/Info                            : Picture based subtitle format used on BDs/HD-DVDs
  75. Duration                                 : 1 h 40 min
  76. Bit rate                                 : 55.8 kb/s
  77. Count of elements                        : 4256
  78. Stream size                              : 40.2 MiB (1%)
  79. Title                                    : 中文简体
  80. Language                                 : Chinese
  81. Default                                  : Yes
  82. Forced                                   : No
  83. Text #3
  84. ID                                       : 5
  85. Format                                   : PGS
  86. Muxing mode                              : zlib
  87. Codec ID                                 : S_HDMV/PGS
  88. Codec ID/Info                            : Picture based subtitle format used on BDs/HD-DVDs
  89. Duration                                 : 1 h 40 min
  90. Bit rate                                 : 58.9 kb/s
  91. Count of elements                        : 4256
  92. Stream size                              : 42.5 MiB (1%)
  93. Title                                    : 中文繁体
  94. Language                                 : Chinese
  95. Default                                  : No
  96. Forced                                   : No
  97. Text #4
  98. ID                                       : 6
  99. Format                                   : PGS
  100. Muxing mode                              : zlib
  101. Codec ID                                 : S_HDMV/PGS
  102. Codec ID/Info                            : Picture based subtitle format used on BDs/HD-DVDs
  103. Duration                                 : 1 h 40 min
  104. Bit rate                                 : 84.3 kb/s
  105. Count of elements                        : 4224
  106. Stream size                              : 60.8 MiB (1%)
  107. Title                                    : 简英双语
  108. Language                                 : Chinese
  109. Default                                  : No
  110. Forced                                   : No
  111. Text #5
  112. ID                                       : 7
  113. Format                                   : PGS
  114. Muxing mode                              : zlib
  115. Codec ID                                 : S_HDMV/PGS
  116. Codec ID/Info                            : Picture based subtitle format used on BDs/HD-DVDs
  117. Duration                                 : 1 h 40 min
  118. Bit rate                                 : 87.2 kb/s
  119. Count of elements                        : 4224
  120. Stream size                              : 62.9 MiB (1%)
  121. Title                                    : 繁英双语
  122. Language                                 : Chinese
  123. Default                                  : No
  124. Forced                                   : No
  125. Menu
  126. 00:00:00.000                             : en:Chapter 01
  127. 00:10:35.092                             : en:Chapter 02
  128. 00:18:37.116                             : en:Chapter 03
  129. 00:32:24.859                             : en:Chapter 04
  130. 00:42:40.307                             : en:Chapter 05
  131. 00:52:27.352                             : en:Chapter 06
  132. 01:02:01.300                             : en:Chapter 07
  133. 01:11:50.931                             : en:Chapter 08
  134. 01:22:36.743                             : en:Chapter 09
  135. 01:32:54.902                             : en:Chapter 10





此处一般会放置磁力链或种子下载链接,不过此链接需要注册会员才能看到,点击“立即注册”
磁力链下载【下载链接仅对注册会员开放,登陆后可见】
BT9527电影天堂 1、BT9527电影天堂提供的BT文件均来源于互联网抓取,只供网友学习交流、技术提升使用。
2、我们遵守BitTorrent点对点协议原则,任何版权问题请联系原资源发布商,我们不处理任何版权纠纷,谢谢!如有争议请联系邮箱:BT9527#hotmail.com(#换成@)
3、如果您发现某页面或地址有错误,请联系站长邮箱BT9527#hotmail.com(#换成@),我们会尽快处理。您的热心是对BT9527电影天堂最大的支持。
4、本站建议去正规影院观看电影以支持电影行业发展。
最新回复 (0)

你可以在 登录 or 注册 后,对此帖发表评论!

返回
发新帖