鬼压床[中文字幕].The.Ancestral.2022.VIETNAMESE.1080p.NF.WEBRip.DDP5.1.x264-NOGRP 3.36GB

版主小s 5天前 145

◎译 名 鬼压床 / The Ancestral

◎片 名 Bóng ?è

◎年 代 2022

◎产 地 越南

◎类 别 恐怖

◎语 言 越南语

◎上映日期 2022-03-18(越南)

◎IMDb链接 https://www.imdb.com/title/tt14134154/

◎豆瓣链接 https://movie.douban.com/subject/35350958/

◎片 长 101分钟

◎导 演 黎文杰 Le-Van Kiet (id:1363187)

◎编 剧 黎文杰 Le-Van Kiet (id:1363187)

◎演 员 清美 Thanh My (id:1343113)

光俊 Quang Tuan (id:1415189)

梅吉薇 Mai Cát Vi (id:1416372)

妙妮 Dieu Nhi (id:1365431)

◎简 介

A Vietnamese family moves into a centuries-old ancestral home, only to discover sinister secrets and visions in the old family's ancient crypt.

  1. Video

  2. ID : 1

  3. Format : AVC

  4. Format/Info : Advanced Video Codec

  5. Format profile : High@L4

  6. Format settings : CABAC / 4 Ref Frames

  7. Format settings, CABAC : Yes

  8. Format settings, Reference frames : 4 frames

  9. Codec ID : V_MPEG4/ISO/AVC

  10. Duration : 1 h 40 min

  11. Bit rate mode : Variable

  12. Bit rate : 4 151 kb/s

  13. Maximum bit rate : 20.0 Mb/s

  14. Width : 1 920 pixels

  15. Height : 1 080 pixels

  16. Display aspect ratio : 16:9

  17. Frame rate mode : Constant

  18. Frame rate : 24.000 FPS

  19. Color space : YUV

  20. Chroma subsampling : 4:2:0

  21. Bit depth : 8 bits

  22. Scan type : Progressive

  23. Bits/(Pixel*Frame) : 0.083

  24. Stream size : 2.91 GiB (87%)

  25. Writing library : x264 core 148 r2727 7d026e8

  26. Encoding settings : cabac=1 / ref=4 / deblock=1:0:0 / analyse=0x3:0x111 / me=umh / subme=10 / psy=1 / psy_rd=1.00:0.00 / mixed_ref=1 / me_range=120 / chroma_me=1 / trellis=2 / 8x8dct=1 / cqm=0 / deadzone=21,11 / fast_pskip=1 / chroma_qp_offset=-2 / threads=8 / lookahead_threads=2 / sliced_threads=0 / nr=0 / decimate=1 / interlaced=0 / NTMzNTQ= / bluray_compat=0 / stitchable=1 / constrained_intra=0 / bframes=16 / b_pyramid=2 / b_adapt=2 / b_bias=0 / direct=3 / weightb=1 / open_gop=0 / weightp=2 / keyint=240 / keyint_min=121 / scenecut=0 / intra_refresh=0 / rc_lookahead=240 / rc=crf / mbtree=1 / crf=16.0 / qcomp=0.50 / qpmin=6 / qpmax=51 / qpstep=4 / vbv_maxrate=20000 / vbv_bufsize=25000 / crf_max=0.0 / nal_hrd=vbr / filler=0 / NTMzNTQ=LmsMAP37EqsCpk / ip_ratio=1.40 / aq=1:0.80

  27. Language : Vietnamese

  28. Default : Yes

  29. Forced : No


  30. Audio

  31. ID : 2

  32. Format : E-AC-3

  33. Format/Info : Enhanced AC-3

  34. Commercial name : Dolby Digital Plus

  35. Codec ID : A_EAC3

  36. Duration : 1 h 40 min

  37. Bit rate mode : Constant

  38. Bit rate : 640 kb/s

  39. Channel(s) : 6 channels

  40. Channel layout : L R C LFE Ls Rs

  41. Sampling rate : 48.0 kHz

  42. Frame rate : 31.250 FPS (1536 SPF)

  43. Compression mode : Lossy

  44. Stream size : 459 MiB (13%)

  45. Language : Vietnamese

  46. Service kind : Complete Main

  47. Default : Yes

  48. Forced : No


  49. Text #1

  50. ID : 3

  51. Format : UTF-8

  52. Codec ID : S_TEXT/UTF8

  53. Codec ID/Info : UTF-8 Plain Text

  54. Duration : 1 h 36 min

  55. Bit rate : 30 b/s

  56. Count of elements : 973

  57. Stream size : 21.6 KiB (0%)

  58. Language : English

  59. Default : Yes

  60. Forced : No


  61. Text #2

  62. ID : 4

  63. Format : UTF-8

  64. Codec ID : S_TEXT/UTF8

  65. Codec ID/Info : UTF-8 Plain Text

  66. Duration : 1 h 36 min

  67. Bit rate : 41 b/s

  68. Count of elements : 1030

  69. Stream size : 29.3 KiB (0%)

  70. Language : Vietnamese

  71. Default : No

  72. Forced : No


  73. Text #3

  74. ID : 5

  75. Format : UTF-8

  76. Codec ID : S_TEXT/UTF8

  77. Codec ID/Info : UTF-8 Plain Text

  78. Duration : 1 h 39 min

  79. Bit rate : 28 b/s

  80. Count of elements : 974

  81. Stream size : 20.4 KiB (0%)

  82. Language : Indonesian

  83. Default : No

  84. Forced : No


  85. Text #4

  86. ID : 6

  87. Format : UTF-8

  88. Codec ID : S_TEXT/UTF8

  89. Codec ID/Info : UTF-8 Plain Text

  90. Duration : 1 h 39 min

  91. Bit rate : 28 b/s

  92. Count of elements : 968

  93. Stream size : 20.9 KiB (0%)

  94. Language : Malay

  95. Default : No

  96. Forced : No


  97. Text #5

  98. ID : 7

  99. Format : UTF-8

  100. Codec ID : S_TEXT/UTF8

  101. Codec ID/Info : UTF-8 Plain Text

  102. Duration : 1 h 39 min

  103. Bit rate : 73 b/s

  104. Count of elements : 974

  105. Stream size : 53.5 KiB (0%)

  106. Language : Thai

  107. Default : No

  108. Forced : No


  109. Text #6

  110. ID : 8

  111. Format : UTF-8

  112. Codec ID : S_TEXT/UTF8

  113. Codec ID/Info : UTF-8 Plain Text

  114. Duration : 1 h 39 min

  115. Bit rate : 29 b/s

  116. Count of elements : 974

  117. Stream size : 21.8 KiB (0%)

  118. Title : Simplified

  119. Language : Chinese

  120. Default : No

  121. Forced : No


  122. Menu

  123. 00:00:00.000 : en:Part 01

  124. 01:37:45.000 : en:Credits

复制代码

  


磁力链:
  • magnet:?xt=urn:btih:6BDFCD8E73F0FA9267AF7C1DDB957B4B1ADCAA54
上传的附件:
BT9527电影天堂 1、BT9527电影天堂提供的BT文件均来源于互联网抓取,只供网友学习交流、技术提升使用。
2、我们遵守BitTorrent点对点协议原则,任何版权问题请联系原资源发布商,我们不处理任何版权纠纷,谢谢!如有争议请联系邮箱:BT9527#hotmail.com(#换成@)
3、如果您发现某页面或地址有错误,请联系站长邮箱BT9527#hotmail.com(#换成@),我们会尽快处理。您的热心是对BT9527电影天堂最大的支持。
4、本站建议去正规影院观看电影以支持电影行业发展。
最新回复 (0)

你可以在 登录 or 注册 后,对此帖发表评论!

返回