古惑仔2之猛龙过江[国语音轨/中文字幕].Young.and.Dangerous.2.1996.CHINESE.1080p.NF.WEBRip.DDP2.0.x264-NOGRP 4.37GB

版主小s 3月前 177

◎译 名 古惑仔2之猛龙过江 / 英雄赤女(台) / Young and Dangerous 2

◎片 名 古惑仔2之猛龍過江

◎年 代 1996

◎产 地 中国香港

◎类 别 剧情 / 动作

◎语 言 粤语 / 英语 / 汉语普通话

◎上映日期 1996-03-30(中国香港)

◎IMDb链接 https://www.imdb.com/title/tt0260932/

◎豆瓣评分 7.7/10 (92059人评价)

◎豆瓣链接 https://movie.douban.com/subject/1473074/

◎片 长 101 分钟

◎导 演 刘伟强 Andrew Lau (id:1106979)

◎编 剧 许莎朗 Sharon Hui (id:1335187)

文隽 Manfred Wong (id:1274823)

◎演 员 郑伊健 Ekin Cheng (id:1031793)

陈小春 Jordan Chan (id:1075760)

黎姿 Gigi Lai (id:1028208)

邱淑贞 Chingmy Yau (id:1048296)

林晓峰 Jerry Lamb (id:1029805)

谢天华 Michael Tse (id:1010833)

朱永棠 Jason Chu (id:1312868)

黄秋生 Anthony Wong Chau-Sang (id:1050076)

任达华 Simon Yam (id:1031194)

雷震 Kelly Lai Chen (id:1052072)

柯受良 Sau Leung 'Blacky' Ko (id:1315099)

谭小环 Halina Tam (id:1052846)

陈豪 Moses Chan (id:1003593)

程小龙 Ronny Ching Siu-Lung (id:1334548)

罗伟佳 Wai-Kai Law (id:1435881)

蔡业信 Raven Choi Yip-San (id:1411485)

刘宝贤 Bowie Lau (id:1320957)

黄金棠 Kam-Tong Wong (id:1410167)

邵萱 Hsuan Shao (id:1346000)

李道谕 Do-Yu Lee (id:1327704)

李兆基 Siu-Kei Lee (id:1275475)

林尚义 Spencer Lam (id:1042889)

李力持 Lik-Chi Lee (id:1274246)

刘伟强 Andrew Lau (id:1106979)

邓建国 Jianguo Deng (id:1425879)

伍乐城 Ronald Ng (id:1293116)

许愿 Clarence Hui (id:1287122)

刘伟强 Andrew Lau (id:1106979)

麦子善 Marco Mak (id:1280638)

何剑雄 Cyrus Ho (id:1286709)

利碧君 Pik Kwan Lee (id:1289693)

林迪安 Dion Lam (id:1289289)

郑保瑞 Pou-Soi Cheang (id:1274240)

黄志明 Wong Chi-Ming (id:1398895)

◎简 介

自从靓昆(吴镇宇 饰)企图谋夺洪兴江山事败之后,陈浩南(郑伊健 饰)声势日盛。在众人支持下,浩南誓要夺得铜锣湾的揸Fit人。树大招风,因此招来了同门大飞(黄秋生 饰)的嫉妒,大飞亦加入了铜锣湾揸Fit人的争夺。

另一方面,山鸡(陈小春 饰)与台湾教父雷公的情妇丁瑶(邱淑贞 饰)有染,返港后发现雷公有意和洪兴争夺濠江赌场,并通过东星双虎涉足其中。雷公和丁瑶及三联帮众人亦来到了香港。

丁瑶暗中拉拢大飞,合谋将雷公杀害并欲嫁祸给山鸡,浩南、山鸡等人会否坠入丁瑶精心设计的圈套中?一场腥风血雨的江湖混战即将展开!

  1. Video

  2. ID : 1

  3. Format : AVC

  4. Format/Info : Advanced Video Codec

  5. Format profile : High@L4

  6. Format settings : CABAC / 4 Ref Frames

  7. Format settings, CABAC : Yes

  8. Format settings, Reference frames : 4 frames

  9. Codec ID : V_MPEG4/ISO/AVC

  10. Duration : 1 h 39 min

  11. Bit rate mode : Variable

  12. Bit rate : 6 148 kb/s

  13. Maximum bit rate : 20.0 Mb/s

  14. Width : 1 920 pixels

  15. Height : 1 080 pixels

  16. Display aspect ratio : 16:9

  17. Frame rate mode : Constant

  18. Frame rate : 23.976 (24000/1001/53354) FPS

  19. Color space : YUV

  20. Chroma subsampling : 4:2:0

  21. Bit depth : 8 bits

  22. Scan type : Progressive

  23. Bits/(Pixel*Frame) : 0.124

  24. Stream size : 4.28 GiB (98%)

  25. Writing library : x264 core 148 r2715 7e75228

  26. Encoding settings : cabac=1 / ref=4 / deblock=1:0:0 / analyse=0x3:0x111 / me=umh / subme=10 / psy=1 / psy_rd=1.00:0.00 / mixed_ref=1 / me_range=120 / chroma_me=1 / trellis=2 / 8x8dct=1 / cqm=0 / deadzone=21,11 / fast_pskip=1 / chroma_qp_offset=-2 / threads=8 / lookahead_threads=2 / sliced_threads=0 / nr=0 / decimate=1 / interlaced=0 / NTMzNTQ= / bluray_compat=0 / stitchable=1 / constrained_intra=0 / bframes=16 / b_pyramid=2 / b_adapt=2 / b_bias=0 / direct=3 / weightb=1 / open_gop=0 / weightp=2 / keyint=240 / keyint_min=121 / scenecut=0 / intra_refresh=0 / rc_lookahead=240 / rc=crf / mbtree=1 / crf=20.0 / qcomp=0.50 / qpmin=6 / qpmax=51 / qpstep=4 / vbv_maxrate=20000 / vbv_bufsize=25000 / crf_max=0.0 / nal_hrd=vbr / filler=0 / NTMzNTQ=LmsMAP37EqsCpk / ip_ratio=1.40 / aq=1:0.80

  27. Default : Yes

  28. Forced : No


  29. Audio

  30. ID : 2

  31. Format : E-AC-3

  32. Format/Info : Enhanced AC-3

  33. Commercial name : Dolby Digital Plus

  34. Codec ID : A_EAC3

  35. Duration : 1 h 39 min

  36. Bit rate mode : Constant

  37. Bit rate : 128 kb/s

  38. Channel(s) : 2 channels

  39. Channel layout : L R

  40. Sampling rate : 48.0 kHz

  41. Frame rate : 31.250 FPS (1536 SPF)

  42. Compression mode : Lossy

  43. Stream size : 91.3 MiB (2%)

  44. Title : 粤语 [Original]

  45. Language : Chinese

  46. Service kind : Complete Main

  47. Default : Yes

  48. Forced : No


  49. Text #1

  50. ID : 3

  51. Format : UTF-8

  52. Codec ID : S_TEXT/UTF8

  53. Codec ID/Info : UTF-8 Plain Text

  54. Duration : 1 h 39 min

  55. Bit rate : 67 b/s

  56. Count of elements : 1480

  57. Stream size : 49.3 KiB (0%)

  58. Language : English

  59. Default : Yes

  60. Forced : No


  61. Text #2

  62. ID : 4

  63. Format : UTF-8

  64. Codec ID : S_TEXT/UTF8

  65. Codec ID/Info : UTF-8 Plain Text

  66. Duration : 1 h 39 min

  67. Bit rate : 63 b/s

  68. Count of elements : 1479

  69. Stream size : 46.5 KiB (0%)

  70. Title : 中文(繁體)

  71. Language : Chinese

  72. Default : No

  73. Forced : No

复制代码

  


磁力链:
  • magnet:?xt=urn:btih:AB57EA0801CA4ED5E590EC733E56C7AC78DB9B28
上传的附件:
BT9527电影天堂 1、BT9527电影天堂提供的BT文件均来源于互联网抓取,只供网友学习交流、技术提升使用。
2、我们遵守BitTorrent点对点协议原则,任何版权问题请联系原资源发布商,我们不处理任何版权纠纷,谢谢!如有争议请联系邮箱:BT9527#hotmail.com(#换成@)
3、如果您发现某页面或地址有错误,请联系站长邮箱BT9527#hotmail.com(#换成@),我们会尽快处理。您的热心是对BT9527电影天堂最大的支持。
4、本站建议去正规影院观看电影以支持电影行业发展。
最新回复 (0)

你可以在 登录 or 注册 后,对此帖发表评论!

返回
发新帖