神奇动物:邓布利多之谜[中文字幕].Fantastic.Beasts.The.Secrets.of.Dumbledore.2022.2160p.BluRay.REMUX.HEVC.DTS-HD.MA.TrueHD.7.1.Atmos-FGT 71.76GB

版主小s 11天前 46

神奇动物:邓布利多之谜[中文字幕].Fantastic.Beasts.The.Secrets.of.Dumbledore.2022.2160p.BluRay.REMUX.HEVC.DTS-HD.MA.TrueHD.7.1.Atmos-FGT 71.76GB

◎译 名 神奇动物:邓布利多之谜 / 神奇动物在哪里3:邓布利多之谜 / 神奇生物在哪里3 / 怪兽与邓不利多的秘密(港 / 台)

◎片 名 Fantastic Beasts: The Secrets of Dumbledore

◎年 代 2022

◎产 地 英国 / 美国

◎类 别 奇幻 / 冒险

◎语 言 英语 / 德语

◎上映日期 2022-04-08(英国/中国大陆) / 2022-04-15(美国)

◎IMDb链接 https://www.imdb.com/title/tt4123432/

◎豆瓣评分 5.9/10 (150327人评价)

◎豆瓣链接 https://movie.douban.com/subject/26147418/

◎片 长 142分钟

◎导 演 大卫·叶茨 David Yates (id:1275147)

◎编 剧 J. K. 罗琳 J. K. Rowling (id:1022772)

史蒂夫·克洛夫斯 Steve Kloves (id:1107737)

◎演 员 埃迪·雷德梅恩 Eddie Redmayne (id:1010503)

裘德·洛 Jude Law (id:1010510)

麦斯·米科尔森 Mads Mikkelsen (id:1040529)

丹·福勒 Dan Fogler (id:1027317)

艾莉森·萨多尔 Alison Sudol (id:1350625)

凯瑟琳·沃特斯顿 Katherine Waterston (id:1316589)

埃兹拉·米勒 Ezra Miller (id:1313037)

卡勒姆·特纳 Callum Turner (id:1328007)

杰西卡·威廉姆斯 Jessica Williams (id:1189267)

理查德·柯伊尔 Richard Coyle (id:1031846)

波佩·科比-特曲 Poppy Corby-Tuech (id:1337282)

维多利亚·耶茨 Victoria Yeates (id:1397745)

威廉·纳迪兰 William Nadylam (id:1361420)

奥利弗·马苏奇 Oliver Masucci (id:1356578)

瓦莱丽·帕赫纳 Valerie Pachner (id:1376990)

亚历山大·库兹涅佐夫 Aleksandr Kuznetsov (id:1400621)

拉莫娜·库泽-莉比诺 Ramona Kunze-Libnow (id:1371863)

马丽娅·费尔南达·康基多 Maria Fernanda Candido (id:1069306)

戴夫·王 Dave Wong (id:1468526)

维尔夫·斯科尔丁 Wilf Scolding (id:1422221)

卢卡斯·英格兰德 Lucas Englander (id:1420361)

菲奥娜·格拉斯科特 Fiona Glascott (id:1094753)

马提亚斯·布伦纳 Matthias Brenner (id:1068895)

彼得·西蒙尼舍克 Peter Simonischek (id:1155835)

雅基·波特斯万 Jacqui Boatswain (id:1278852)

赫柏·贝尔德索尔 Hebe Beardsall (id:1315461)

曼努埃尔·克莱因 Manuel Klein (id:1107683)

凯文·格思里 Kevin Guthrie (id:1335226)

詹姆斯·纽顿·霍华德 James Newton Howard (id:1019135)

乔治·瑞奇蒙 George Richmond (id:1434359)

柯琳·阿特伍德 Colleen Atwood (id:1277560)

◎简 介

阿不思·邓布利多教授(裘德·洛 饰)意识到强大的黑巫师盖勒特·格林德沃(麦斯·米科尔森 饰)正试图夺取魔法世界的控制权。邓布利多了解仅凭他一人之力,将无法阻止格林德沃,于是他委托魔法动物学家纽特·斯卡曼德(埃迪·雷德梅恩 饰)带领一支精良的团队——成员包括男巫、女巫及一位勇敢的麻瓜面包师,来共同执行这项危险任务。一路上他们会遇到各式各样的神奇动物,既有老朋友,也有前所未见的神秘生物;同时他们也随时会与格林德沃不断壮大的追随者发生冲突。这次行动的风险是如此之高……邓布利多还能袖手旁观多久?

  1. Video

  2. ID : 1

  3. ID in the original source medium : 4113 (0x1011)

  4. Format : HEVC

  5. Format/Info : High Efficiency Video Coding

  6. Format profile : Main 10@L5.1@High

  7. HDR format : Dolby Vision, Version 1.0, dvhe.07.06, BL+EL+RPU, Blu-ray compatible / SMPTE ST 2086, HDR10 compatible

  8. Codec ID : V_MPEGH/ISO/HEVC

  9. Duration : 2 h 22 min

  10. Bit rate : 56.5 Mb/s

  11. Width : 3 840 pixels

  12. Height : 2 160 pixels

  13. Display aspect ratio : 16:9

  14. Frame rate mode : Constant

  15. Frame rate : 23.976 (24000/1001/53354) FPS

  16. Color space : YUV

  17. Chroma subsampling : 4:2:0 (Type 2)

  18. Bit depth : 10 bits

  19. Bits/(Pixel*Frame) : 0.284

  20. Stream size : 56.3 GiB (78%)

  21. Language : English

  22. Default : No

  23. Forced : No

  24. Color range : Limited

  25. Color primaries : BT.2020

  26. Transfer characteristics : PQ

  27. Matrix coefficients : BT.2020 non-constant

  28. Mastering display color primaries : Display P3

  29. Mastering display luminance : min: 0.0001 cd/m2, max: 1000 cd/m2

  30. Maximum Content Light Level : 500 cd/m2

  31. Maximum Frame-Average Light Level : 54 cd/m2

  32. Original source medium : Blu-ray


  33. Audio #1

  34. ID : 2

  35. ID in the original source medium : 4352 (0x1100)

  36. Format : MLP FBA 16-ch

  37. Format/Info : Meridian Lossless Packing FBA with 16-channel presentation

  38. Commercial name : Dolby TrueHD with Dolby Atmos

  39. Codec ID : A_TRUEHD

  40. Duration : 2 h 22 min

  41. Bit rate mode : Variable

  42. Bit rate : 2 742 kb/s

  43. Maximum bit rate : 4 389 kb/s

  44. Channel(s) : 8 channels

  45. Channel layout : L R C LFE Ls Rs Lb Rb

  46. Sampling rate : 48.0 kHz

  47. Frame rate : 1 200.000 FPS (40 SPF)

  48. Bit depth : 24 bits

  49. Compression mode : Lossless

  50. Stream size : 2.73 GiB (4%)

  51. Title : TrueHD 7.1 Atmos

  52. Language : English

  53. Default : Yes

  54. Forced : No

  55. Original source medium : Blu-ray

  56. Number of dynamic objects : 11

  57. Bed channel count : 1 channel

  58. Bed channel configuration : LFE


  59. Audio #2

  60. ID : 3

  61. Format : DTS XLL

  62. Format/Info : Digital Theater Systems

  63. Commercial name : DTS-HD Master Audio

  64. Codec ID : A_DTS

  65. Duration : 2 h 22 min

  66. Bit rate mode : Variable

  67. Bit rate : 3 254 kb/s

  68. Channel(s) : 8 channels

  69. Channel layout : C L R LFE Lb Rb Lss Rss

  70. Sampling rate : 48.0 kHz

  71. Frame rate : 93.750 FPS (512 SPF)

  72. Bit depth : 24 bits

  73. Compression mode : Lossless

  74. Stream size : 3.24 GiB (5%)

  75. Title : DTS-HD MA 7.1

  76. Language : English

  77. Default : No

  78. Forced : No


  79. Audio #3

  80. ID : 4

  81. ID in the original source medium : 4352 (0x1100)

  82. Format : AC-3

  83. Format/Info : Audio Coding 3

  84. Commercial name : Dolby Digital

  85. Format settings : Dolby Surround EX

  86. Codec ID : A_AC3

  87. Duration : 2 h 22 min

  88. Bit rate mode : Constant

  89. Bit rate : 448 kb/s

  90. Channel(s) : 6 channels

  91. Channel layout : L R C LFE Ls Rs

  92. Sampling rate : 48.0 kHz

  93. Frame rate : 31.250 FPS (1536 SPF)

  94. Compression mode : Lossy

  95. Stream size : 457 MiB (1%)

  96. Title : DD 5.1

  97. Language : English

  98. Service kind : Complete Main

  99. Default : No

  100. Forced : No

  101. Original source medium : Blu-ray


  102. Audio #4

  103. ID : 5

  104. ID in the original source medium : 4353 (0x1101)

  105. Format : AC-3

  106. Format/Info : Audio Coding 3

  107. Commercial name : Dolby Digital

  108. Codec ID : A_AC3

  109. Duration : 2 h 22 min

  110. Bit rate mode : Constant

  111. Bit rate : 448 kb/s

  112. Channel(s) : 6 channels

  113. Channel layout : L R C LFE Ls Rs

  114. Sampling rate : 48.0 kHz

  115. Frame rate : 31.250 FPS (1536 SPF)

  116. Compression mode : Lossy

  117. Stream size : 457 MiB (1%)

  118. Title : DD 5.1

  119. Language : English

  120. Service kind : Complete Main

  121. Default : No

  122. Forced : No

  123. Original source medium : Blu-ray


  124. Audio #5

  125. ID : 6

  126. ID in the original source medium : 4354 (0x1102)

  127. Format : AC-3

  128. Format/Info : Audio Coding 3

  129. Commercial name : Dolby Digital

  130. Codec ID : A_AC3

  131. Duration : 2 h 22 min

  132. Bit rate mode : Constant

  133. Bit rate : 448 kb/s

  134. Channel(s) : 6 channels

  135. Channel layout : L R C LFE Ls Rs

  136. Sampling rate : 48.0 kHz

  137. Frame rate : 31.250 FPS (1536 SPF)

  138. Compression mode : Lossy

  139. Stream size : 457 MiB (1%)

  140. Title : DD 5.1

  141. Language : English

  142. Service kind : Complete Main

  143. Default : No

  144. Forced : No

  145. Original source medium : Blu-ray


  146. Audio #6

  147. ID : 7

  148. ID in the original source medium : 4355 (0x1103)

  149. Format : AC-3

  150. Format/Info : Audio Coding 3

  151. Commercial name : Dolby Digital

  152. Codec ID : A_AC3

  153. Duration : 2 h 22 min

  154. Bit rate mode : Constant

  155. Bit rate : 448 kb/s

  156. Channel(s) : 6 channels

  157. Channel layout : L R C LFE Ls Rs

  158. Sampling rate : 48.0 kHz

  159. Frame rate : 31.250 FPS (1536 SPF)

  160. Compression mode : Lossy

  161. Stream size : 457 MiB (1%)

  162. Title : DD 5.1

  163. Language : English

  164. Service kind : Complete Main

  165. Default : No

  166. Forced : No

  167. Original source medium : Blu-ray


  168. Audio #7

  169. ID : 8

  170. ID in the original source medium : 4356 (0x1104)

  171. Format : AC-3

  172. Format/Info : Audio Coding 3

  173. Commercial name : Dolby Digital

  174. Codec ID : A_AC3

  175. Duration : 2 h 22 min

  176. Bit rate mode : Constant

  177. Bit rate : 448 kb/s

  178. Channel(s) : 6 channels

  179. Channel layout : L R C LFE Ls Rs

  180. Sampling rate : 48.0 kHz

  181. Frame rate : 31.250 FPS (1536 SPF)

  182. Compression mode : Lossy

  183. Stream size : 457 MiB (1%)

  184. Title : DD 5.1

  185. Language : French

  186. Service kind : Complete Main

  187. Default : No

  188. Forced : No

  189. Original source medium : Blu-ray


  190. Audio #8

  191. ID : 9

  192. ID in the original source medium : 4357 (0x1105)

  193. Format : MLP FBA 16-ch

  194. Format/Info : Meridian Lossless Packing FBA with 16-channel presentation

  195. Commercial name : Dolby TrueHD with Dolby Atmos

  196. Codec ID : A_TRUEHD

  197. Duration : 2 h 22 min

  198. Bit rate mode : Variable

  199. Bit rate : 2 737 kb/s

  200. Maximum bit rate : 4 368 kb/s

  201. Channel(s) : 8 channels

  202. Channel layout : L R C LFE Ls Rs Lb Rb

  203. Sampling rate : 48.0 kHz

  204. Frame rate : 1 200.000 FPS (40 SPF)

  205. Bit depth : 24 bits

  206. Compression mode : Lossless

  207. Stream size : 2.73 GiB (4%)

  208. Title : TrueHD 7.1 Atmos

  209. Language : German

  210. Default : No

  211. Forced : No

  212. Original source medium : Blu-ray

  213. Number of dynamic objects : 11

  214. Bed channel count : 1 channel

  215. Bed channel configuration : LFE


  216. Audio #9

  217. ID : 10

  218. ID in the original source medium : 4358 (0x1106)

  219. Format : AC-3

  220. Format/Info : Audio Coding 3

  221. Commercial name : Dolby Digital

  222. Codec ID : A_AC3

  223. Duration : 2 h 22 min

  224. Bit rate mode : Constant

  225. Bit rate : 448 kb/s

  226. Channel(s) : 6 channels

  227. Channel layout : L R C LFE Ls Rs

  228. Sampling rate : 48.0 kHz

  229. Frame rate : 31.250 FPS (1536 SPF)

  230. Compression mode : Lossy

  231. Stream size : 457 MiB (1%)

  232. Title : DD 5.1

  233. Language : German

  234. Service kind : Complete Main

  235. Default : No

  236. Forced : No

  237. Original source medium : Blu-ray


  238. Audio #10

  239. ID : 11

  240. ID in the original source medium : 4359 (0x1107)

  241. Format : AC-3

  242. Format/Info : Audio Coding 3

  243. Commercial name : Dolby Digital

  244. Format settings : Dolby Surround

  245. Codec ID : A_AC3

  246. Duration : 2 h 22 min

  247. Bit rate mode : Constant

  248. Bit rate : 192 kb/s

  249. Channel(s) : 2 channels

  250. Channel layout : L R

  251. Sampling rate : 48.0 kHz

  252. Frame rate : 31.250 FPS (1536 SPF)

  253. Compression mode : Lossy

  254. Stream size : 196 MiB (0%)

  255. Title : DD 2.0

  256. Language : German

  257. Service kind : Complete Main

  258. Default : No

  259. Forced : No

  260. Original source medium : Blu-ray


  261. Audio #11

  262. ID : 12

  263. ID in the original source medium : 4360 (0x1108)

  264. Format : MLP FBA 16-ch

  265. Format/Info : Meridian Lossless Packing FBA with 16-channel presentation

  266. Commercial name : Dolby TrueHD with Dolby Atmos

  267. Codec ID : A_TRUEHD

  268. Duration : 2 h 22 min

  269. Bit rate mode : Variable

  270. Bit rate : 2 723 kb/s

  271. Maximum bit rate : 4 368 kb/s

  272. Channel(s) : 8 channels

  273. Channel layout : L R C LFE Ls Rs Lb Rb

  274. Sampling rate : 48.0 kHz

  275. Frame rate : 1 200.000 FPS (40 SPF)

  276. Bit depth : 24 bits

  277. Compression mode : Lossless

  278. Stream size : 2.71 GiB (4%)

  279. Title : TrueHD 7.1 Atmos

  280. Language : Italian

  281. Default : No

  282. Forced : No

  283. Original source medium : Blu-ray

  284. Number of dynamic objects : 11

  285. Bed channel count : 1 channel

  286. Bed channel configuration : LFE


  287. Audio #12

  288. ID : 13

  289. ID in the original source medium : 4361 (0x1109)

  290. Format : AC-3

  291. Format/Info : Audio Coding 3

  292. Commercial name : Dolby Digital

  293. Codec ID : A_AC3

  294. Duration : 2 h 22 min

  295. Bit rate mode : Constant

  296. Bit rate : 448 kb/s

  297. Channel(s) : 6 channels

  298. Channel layout : L R C LFE Ls Rs

  299. Sampling rate : 48.0 kHz

  300. Frame rate : 31.250 FPS (1536 SPF)

  301. Compression mode : Lossy

  302. Stream size : 457 MiB (1%)

  303. Title : DD 5.1

  304. Language : Italian

  305. Service kind : Complete Main

  306. Default : No

  307. Forced : No

  308. Original source medium : Blu-ray


  309. Audio #13

  310. ID : 14

  311. ID in the original source medium : 4362 (0x110A)

  312. Format : AC-3

  313. Format/Info : Audio Coding 3

  314. Commercial name : Dolby Digital

  315. Codec ID : A_AC3

  316. Duration : 2 h 22 min

  317. Bit rate mode : Constant

  318. Bit rate : 448 kb/s

  319. Channel(s) : 6 channels

  320. Channel layout : L R C LFE Ls Rs

  321. Sampling rate : 48.0 kHz

  322. Frame rate : 31.250 FPS (1536 SPF)

  323. Compression mode : Lossy

  324. Stream size : 457 MiB (1%)

  325. Title : DD 5.1

  326. Language : Spanish

  327. Service kind : Complete Main

  328. Default : No

  329. Forced : No

  330. Original source medium : Blu-ray


  331. Text #1

  332. ID : 15

  333. Format : UTF-8

  334. Codec ID : S_TEXT/UTF8

  335. Codec ID/Info : UTF-8 Plain Text

  336. Duration : 2 h 16 min

  337. Bit rate : 34 b/s

  338. Count of elements : 1274

  339. Stream size : 35.0 KiB (0%)

  340. Language : English

  341. Default : Yes

  342. Forced : No


  343. Text #2

  344. ID : 16

  345. Format : UTF-8

  346. Codec ID : S_TEXT/UTF8

  347. Codec ID/Info : UTF-8 Plain Text

  348. Duration : 2 h 20 min

  349. Bit rate : 45 b/s

  350. Count of elements : 1794

  351. Stream size : 46.7 KiB (0%)

  352. Title : SDH

  353. Language : English

  354. Default : No

  355. Forced : No


  356. Text #3

  357. ID : 17

  358. ID in the original source medium : 4768 (0x12A0)

  359. Format : PGS

  360. Muxing mode : zlib

  361. Codec ID : S_HDMV/PGS

  362. Codec ID/Info : Picture based subtitle format used on BDs/HD-DVDs

  363. Duration : 2 h 20 min

  364. Bit rate : 29.0 kb/s

  365. Count of elements : 3647

  366. Stream size : 29.1 MiB (0%)

  367. Language : English

  368. Default : No

  369. Forced : No

  370. Original source medium : Blu-ray


  371. Text #4

  372. ID : 18

  373. ID in the original source medium : 4769 (0x12A1)

  374. Format : PGS

  375. Muxing mode : zlib

  376. Codec ID : S_HDMV/PGS

  377. Codec ID/Info : Picture based subtitle format used on BDs/HD-DVDs

  378. Duration : 2 h 21 min

  379. Bit rate : 18.0 kb/s

  380. Count of elements : 2424

  381. Stream size : 18.3 MiB (0%)

  382. Language : French

  383. Default : No

  384. Forced : No

  385. Original source medium : Blu-ray


  386. Text #5

  387. ID : 19

  388. ID in the original source medium : 4770 (0x12A2)

  389. Format : PGS

  390. Muxing mode : zlib

  391. Codec ID : S_HDMV/PGS

  392. Codec ID/Info : Picture based subtitle format used on BDs/HD-DVDs

  393. Duration : 2 h 17 min

  394. Bit rate : 32.2 kb/s

  395. Count of elements : 3184

  396. Stream size : 31.7 MiB (0%)

  397. Language : German

  398. Default : No

  399. Forced : No

  400. Original source medium : Blu-ray


  401. Text #6

  402. ID : 20

  403. ID in the original source medium : 4771 (0x12A3)

  404. Format : PGS

  405. Muxing mode : zlib

  406. Codec ID : S_HDMV/PGS

  407. Codec ID/Info : Picture based subtitle format used on BDs/HD-DVDs

  408. Duration : 2 h 22 min

  409. Bit rate : 26.9 kb/s

  410. Count of elements : 3626

  411. Stream size : 27.4 MiB (0%)

  412. Language : Italian

  413. Default : No

  414. Forced : No

  415. Original source medium : Blu-ray


  416. Text #7

  417. ID : 21

  418. ID in the original source medium : 4772 (0x12A4)

  419. Format : PGS

  420. Muxing mode : zlib

  421. Codec ID : S_HDMV/PGS

  422. Codec ID/Info : Picture based subtitle format used on BDs/HD-DVDs

  423. Duration : 2 h 21 min

  424. Bit rate : 20.3 kb/s

  425. Count of elements : 2310

  426. Stream size : 20.6 MiB (0%)

  427. Language : Chinese

  428. Default : No

  429. Forced : No

  430. Original source medium : Blu-ray


  431. Text #8

  432. ID : 22

  433. ID in the original source medium : 4773 (0x12A5)

  434. Format : PGS

  435. Muxing mode : zlib

  436. Codec ID : S_HDMV/PGS

  437. Codec ID/Info : Picture based subtitle format used on BDs/HD-DVDs

  438. Duration : 2 h 21 min

  439. Bit rate : 19.8 kb/s

  440. Count of elements : 2454

  441. Stream size : 20.0 MiB (0%)

  442. Language : Chinese

  443. Default : No

  444. Forced : No

  445. Original source medium : Blu-ray


  446. Text #9

  447. ID : 23

  448. ID in the original source medium : 4774 (0x12A6)

  449. Format : PGS

  450. Muxing mode : zlib

  451. Codec ID : S_HDMV/PGS

  452. Codec ID/Info : Picture based subtitle format used on BDs/HD-DVDs

  453. Duration : 2 h 21 min

  454. Bit rate : 12.1 kb/s

  455. Count of elements : 2418

  456. Stream size : 12.2 MiB (0%)

  457. Language : Korean

  458. Default : No

  459. Forced : No

  460. Original source medium : Blu-ray


  461. Text #10

  462. ID : 24

  463. ID in the original source medium : 4775 (0x12A7)

  464. Format : PGS

  465. Muxing mode : zlib

  466. Codec ID : S_HDMV/PGS

  467. Codec ID/Info : Picture based subtitle format used on BDs/HD-DVDs

  468. Duration : 2 h 21 min

  469. Bit rate : 19.9 kb/s

  470. Count of elements : 2444

  471. Stream size : 20.2 MiB (0%)

  472. Language : Spanish

  473. Default : No

  474. Forced : No

  475. Original source medium : Blu-ray


  476. Text #11

  477. ID : 25

  478. ID in the original source medium : 4776 (0x12A8)

  479. Format : PGS

  480. Muxing mode : zlib

  481. Codec ID : S_HDMV/PGS

  482. Codec ID/Info : Picture based subtitle format used on BDs/HD-DVDs

  483. Duration : 2 h 21 min

  484. Bit rate : 18.9 kb/s

  485. Count of elements : 2046

  486. Stream size : 19.1 MiB (0%)

  487. Language : Danish

  488. Default : No

  489. Forced : No

  490. Original source medium : Blu-ray


  491. Text #12

  492. ID : 26

  493. ID in the original source medium : 4777 (0x12A9)

  494. Format : PGS

  495. Muxing mode : zlib

  496. Codec ID : S_HDMV/PGS

  497. Codec ID/Info : Picture based subtitle format used on BDs/HD-DVDs

  498. Duration : 2 h 21 min

  499. Bit rate : 19.0 kb/s

  500. Count of elements : 2472

  501. Stream size : 19.2 MiB (0%)

  502. Language : Finnish

  503. Default : No

  504. Forced : No

  505. Original source medium : Blu-ray


  506. Text #13

  507. ID : 27

  508. ID in the original source medium : 4778 (0x12AA)

  509. Format : PGS

  510. Muxing mode : zlib

  511. Codec ID : S_HDMV/PGS

  512. Codec ID/Info : Picture based subtitle format used on BDs/HD-DVDs

  513. Duration : 2 h 21 min

  514. Bit rate : 19.0 kb/s

  515. Count of elements : 1948

  516. Stream size : 19.2 MiB (0%)

  517. Language : Norwegian

  518. Default : No

  519. Forced : No

  520. Original source medium : Blu-ray


  521. Text #14

  522. ID : 28

  523. ID in the original source medium : 4779 (0x12AB)

  524. Format : PGS

  525. Muxing mode : zlib

  526. Codec ID : S_HDMV/PGS

  527. Codec ID/Info : Picture based subtitle format used on BDs/HD-DVDs

  528. Duration : 2 h 21 min

  529. Bit rate : 17.6 kb/s

  530. Count of elements : 1876

  531. Stream size : 17.8 MiB (0%)

  532. Language : Swedish

  533. Default : No

  534. Forced : No

  535. Original source medium : Blu-ray


  536. Text #15

  537. ID : 29

  538. ID in the original source medium : 4780 (0x12AC)

  539. Format : PGS

  540. Muxing mode : zlib

  541. Codec ID : S_HDMV/PGS

  542. Codec ID/Info : Picture based subtitle format used on BDs/HD-DVDs

  543. Duration : 1 h 13 min

  544. Bit rate : 198 b/s

  545. Count of elements : 10

  546. Stream size : 107 KiB (0%)

  547. Title : FORCED

  548. Language : German

  549. Default : No

  550. Forced : No

  551. Original source medium : Blu-ray


  552. Text #16

  553. ID : 30

  554. ID in the original source medium : 4781 (0x12AD)

  555. Format : PGS

  556. Muxing mode : zlib

  557. Codec ID : S_HDMV/PGS

  558. Codec ID/Info : Picture based subtitle format used on BDs/HD-DVDs

  559. Duration : 1 h 37 min

  560. Bit rate : 404 b/s

  561. Count of elements : 32

  562. Stream size : 289 KiB (0%)

  563. Title : FORCED

  564. Language : Italian

  565. Default : No

  566. Forced : No

  567. Original source medium : Blu-ray


  568. Text #17

  569. ID : 31

  570. ID in the original source medium : 4782 (0x12AE)

  571. Format : PGS

  572. Muxing mode : zlib

  573. Codec ID : S_HDMV/PGS

  574. Codec ID/Info : Picture based subtitle format used on BDs/HD-DVDs

  575. Duration : 1 h 10 min

  576. Bit rate : 383 b/s

  577. Count of elements : 20

  578. Stream size : 198 KiB (0%)

  579. Title : FORCED

  580. Language : French

  581. Default : No

  582. Forced : No

  583. Original source medium : Blu-ray


  584. Text #18

  585. ID : 32

  586. ID in the original source medium : 4783 (0x12AF)

  587. Format : PGS

  588. Muxing mode : zlib

  589. Codec ID : S_HDMV/PGS

  590. Codec ID/Info : Picture based subtitle format used on BDs/HD-DVDs

  591. Duration : 1 h 46 min

  592. Bit rate : 370 b/s

  593. Count of elements : 30

  594. Stream size : 289 KiB (0%)

  595. Title : FORCED

  596. Language : Spanish

  597. Default : No

  598. Forced : No

  599. Original source medium : Blu-ray


  600. Menu

  601. 00:00:00.000 : en:Chapter 01

  602. 00:10:32.465 : en:Chapter 02

  603. 00:21:47.597 : en:Chapter 03

  604. 00:28:14.526 : en:Chapter 04

  605. 00:37:49.600 : en:Chapter 05

  606. 00:47:41.567 : en:Chapter 06

  607. 01:00:03.141 : en:Chapter 07

  608. 01:10:51.497 : en:Chapter 08

  609. 01:18:50.600 : en:Chapter 09

  610. 01:30:10.446 : en:Chapter 10

  611. 01:39:50.234 : en:Chapter 11

  612. 01:49:31.064 : en:Chapter 12

  613. 01:56:51.087 : en:Chapter 13

  614. 02:07:18.088 : en:Chapter 14

  615. 02:13:17.990 : en:Chapter 15

复制代码

  


磁力链:
  • magnet:?xt=urn:btih:06B6319560F426EB28A2DAFC3DCAF85A71718D09
上传的附件:
BT9527电影天堂 1、BT9527电影天堂提供的BT文件均来源于互联网抓取,只供网友学习交流、技术提升使用。
2、我们遵守BitTorrent点对点协议原则,任何版权问题请联系原资源发布商,我们不处理任何版权纠纷,谢谢!如有争议请联系邮箱:BT9527#hotmail.com(#换成@)
3、如果您发现某页面或地址有错误,请联系站长邮箱BT9527#hotmail.com(#换成@),我们会尽快处理。您的热心是对BT9527电影天堂最大的支持。
4、本站建议去正规影院观看电影以支持电影行业发展。
最新回复 (0)

你可以在 登录 or 注册 后,对此帖发表评论!

返回
发新帖