古惑仔之人在江湖[国语音轨/中文字幕].Young.and.Dangerous.1996.CHINESE.1080p.NF.WEBRip.DDP2.0.x264-NOGRP 3.45GB

版主小s 2天前 33

◎译 名 古惑仔之人在江湖 / 英雄不败(台) / Young and Dangerous

◎年 代 1996

◎产 地 中国香港

◎类 别 动作 / 犯罪

◎语 言 粤语

◎上映日期 1996-01-25(中国香港)

◎IMDb链接 https://www.imdb.com/title/tt0116456/

◎豆瓣评分 7.9/10 (119743人评价)

◎豆瓣链接 https://movie.douban.com/subject/1433736/

◎片 长 97 分钟

◎导 演 刘伟强 Andrew Lau (id:1106979)

◎编 剧 文隽 Manfred Wong (id:1274823)

◎演 员 郑伊健 Ekin Cheng (id:1031793)

陈小春 Jordan Chan (id:1075760)

吴镇宇 Francis Ng (id:1037098)

黎姿 Gigi Lai (id:1028208)

林晓峰 Jerry Lamb (id:1029805)

谢天华 Michael Tse (id:1010833)

林尚义 Spencer Lam (id:1042889)

朱永棠 Jason Chu (id:1312868)

吴志雄 Chi Hung Ng (id:1316796)

任达华 Simon Yam (id:1031194)

夏萍 Ping Ha (id:1029271)

罗兰 Lan Law (id:1054340)

王龙威 Lung Wei Wang (id:1012747)

陈秀茹 Suki Chan (id:1352862)

李道瑜 andy.lee (id:1354050)

程小龙 Ronny Ching Siu-Lung (id:1334548)

植敬雯 King-Man Chik (id:1315881)

王文駿 Man-Chun Wong (id:1441056)

蔡业信 Raven Choi Yip-San (id:1411485)

周树基 Kent Chow Shu-Kei (id:1411711)

雷达 Tat Lui (id:1361262)

邓泰和 Tai Wo Tang (id:1394346)

何嘉辉 Ka-Hui Ho (id:1439128)

郑保瑞 Pou-Soi Cheang (id:1274240)

成奎安 Fui-On Shing (id:1141665)

林迪安 Dion Lam (id:1289289)

郑祖 Joe Cheng (id:1318850)

李兆基 Siu-Kei Lee (id:1275475)

李道谕 Do-Yu Lee (id:1327704)

曾小燕 Siu-Yin Tsang (id:1330560)

王晶 Jing Wong (id:1274331)

刘宝贤 Bowie Lau (id:1320957)

许愿 Clarence Hui (id:1287122)

刘伟强 Andrew Lau (id:1106979)

麦子善 Marco Mak (id:1280638)

利碧君 Pik Kwan Lee (id:1289693)

林迪安 Dion Lam (id:1289289)

黄志明 Wong Chi-Ming (id:1398895)

◎简 介

陈浩南(郑伊健 饰)、山鸡(陈小春 饰)、巢皮等人从少年时代起就是好友。他们无心读书,一心向往江湖生活。终于有江湖人士大佬B收纳为徒,开始闯荡江湖。浩南在一次黑帮仇杀中大展拳脚,杀死了黑道大哥巴闭,因此与另一头目靓坤( 吴镇宇 饰)结下深仇。靓坤设法加害浩南,令浩南兄弟巢皮惨死,而浩南误服药物与山鸡女友发生关系,兄弟间开始积怨。浩南心灰意冷,打算收手,怎料大佬B遭全家灭门,自己经营的店铺被烧毁,靓坤的步步相逼令浩南忍无可忍。

  1. Video

  2. ID : 1

  3. Format : AVC

  4. Format/Info : Advanced Video Codec

  5. Format profile : High@L4

  6. Format settings : CABAC / 4 Ref Frames

  7. Format settings, CABAC : Yes

  8. Format settings, Reference frames : 4 frames

  9. Codec ID : V_MPEG4/ISO/AVC

  10. Duration : 1 h 39 min

  11. Bit rate mode : Variable

  12. Bit rate : 4 820 kb/s

  13. Maximum bit rate : 20.0 Mb/s

  14. Width : 1 920 pixels

  15. Height : 1 080 pixels

  16. Display aspect ratio : 16:9

  17. Frame rate mode : Constant

  18. Frame rate : 23.976 (24000/1001/53354) FPS

  19. Color space : YUV

  20. Chroma subsampling : 4:2:0

  21. Bit depth : 8 bits

  22. Scan type : Progressive

  23. Bits/(Pixel*Frame) : 0.097

  24. Stream size : 3.36 GiB (97%)

  25. Writing library : x264 core 148 r2715 7e75228

  26. Encoding settings : cabac=1 / ref=4 / deblock=1:0:0 / analyse=0x3:0x111 / me=umh / subme=10 / psy=1 / psy_rd=1.00:0.00 / mixed_ref=1 / me_range=120 / chroma_me=1 / trellis=2 / 8x8dct=1 / cqm=0 / deadzone=21,11 / fast_pskip=1 / chroma_qp_offset=-2 / threads=8 / lookahead_threads=2 / sliced_threads=0 / nr=0 / decimate=1 / interlaced=0 / NTMzNTQ= / bluray_compat=0 / stitchable=1 / constrained_intra=0 / bframes=16 / b_pyramid=2 / b_adapt=2 / b_bias=0 / direct=3 / weightb=1 / open_gop=0 / weightp=2 / keyint=240 / keyint_min=121 / scenecut=0 / intra_refresh=0 / rc_lookahead=240 / rc=crf / mbtree=1 / crf=24.0 / qcomp=0.50 / qpmin=6 / qpmax=51 / qpstep=4 / vbv_maxrate=20000 / vbv_bufsize=25000 / crf_max=0.0 / nal_hrd=vbr / filler=0 / NTMzNTQ=LmsMAP37EqsCpk / ip_ratio=1.40 / aq=1:0.80

  27. Default : Yes

  28. Forced : No


  29. Audio

  30. ID : 2

  31. Format : E-AC-3

  32. Format/Info : Enhanced AC-3

  33. Commercial name : Dolby Digital Plus

  34. Codec ID : A_EAC3

  35. Duration : 1 h 39 min

  36. Bit rate mode : Constant

  37. Bit rate : 128 kb/s

  38. Channel(s) : 2 channels

  39. Channel layout : L R

  40. Sampling rate : 48.0 kHz

  41. Frame rate : 31.250 FPS (1536 SPF)

  42. Compression mode : Lossy

  43. Stream size : 91.3 MiB (3%)

  44. Title : 粤语 [Original]

  45. Language : Chinese

  46. Service kind : Complete Main

  47. Default : Yes

  48. Forced : No


  49. Text #1

  50. ID : 3

  51. Format : UTF-8

  52. Codec ID : S_TEXT/UTF8

  53. Codec ID/Info : UTF-8 Plain Text

  54. Duration : 1 h 37 min

  55. Bit rate : 45 b/s

  56. Count of elements : 1177

  57. Stream size : 32.9 KiB (0%)

  58. Language : English

  59. Default : Yes

  60. Forced : No


  61. Text #2

  62. ID : 4

  63. Format : UTF-8

  64. Codec ID : S_TEXT/UTF8

  65. Codec ID/Info : UTF-8 Plain Text

  66. Duration : 1 h 38 min

  67. Bit rate : 58 b/s

  68. Count of elements : 1416

  69. Stream size : 42.3 KiB (0%)

  70. Title : 中文(繁體)

  71. Language : Chinese

  72. Default : No

  73. Forced : No

复制代码

  


磁力链:
  • magnet:?xt=urn:btih:13CA5E7BC2082A8E305897E001BBD7A4A6E797C2
上传的附件:
BT9527电影天堂 1、BT9527电影天堂提供的BT文件均来源于互联网抓取,只供网友学习交流、技术提升使用。
2、我们遵守BitTorrent点对点协议原则,任何版权问题请联系原资源发布商,我们不处理任何版权纠纷,谢谢!如有争议请联系邮箱:BT9527#hotmail.com(#换成@)
3、如果您发现某页面或地址有错误,请联系站长邮箱BT9527#hotmail.com(#换成@),我们会尽快处理。您的热心是对BT9527电影天堂最大的支持。
4、本站建议去正规影院观看电影以支持电影行业发展。
最新回复 (0)

你可以在 登录 or 注册 后,对此帖发表评论!

返回
发新帖