隐秘的生活[中文字幕].A.Hidden.Life.2019.2160p.WEB-DL.DTS-HD.MA.7.1.DV.MKV.x265-DVSUX 25.46GB

版主小s 2天前 131

◎标 题 隐秘的生活

◎译 名 隐藏的生活(台) / 隐匿生活 / 隐秘生活 / 拉黛贡德 / Radegund

◎片 名 A Hidden Life

◎年 代 2019

◎产 地 美国 / 英国 / 德国

◎类 别 剧情 / 爱情 / 传记 / 战争

◎语 言 英语 / 德语 / 意大利语

◎上映日期 2019-05-19(戛纳电影节) / 2019-12-13(美国)

◎IMDb评分 7.4/10 (22166人评价)

◎IMDb链接 https://www.imdb.com/title/tt5827916/

◎豆瓣评分 7.7/10 (10227人评价)

◎豆瓣链接 https://movie.douban.com/subject/26823502/

◎片 长 173分钟(戛纳电影节)

◎导 演 泰伦斯·马力克 Terrence Malick

◎编 剧 泰伦斯·马力克 Terrence Malick

◎演 员 奥古斯特·迪赫 August Diehl

瓦莱丽·帕赫纳 Valerie Pachner

玛丽亚·西蒙 Maria Simon

卡琳·纽荷瑟 Karin Neuhäuser

托比亚斯·莫雷蒂 Tobias Moretti

乌尔里希·马特斯 Ulrich Matthes

马提亚斯·修奈尔 Matthias Schoenaerts

弗兰茨·罗戈夫斯基 Franz Rogowski

卡尔·马克维斯 Karl Markovics

布鲁诺·冈茨 Bruno Ganz

迈克尔·恩奎斯特 Michael Nyqvist

沃尔夫冈·迈克尔 Wolfgang Michael

约翰内斯·克里施 Johannes Krisch

约翰·雷森 Johan Leysen

马丁·乌特克 Martin Wuttke

瓦尔德马·科布斯 Waldemar Kobus

索菲·罗伊斯 Sophie Rois

亚历山大·费林 Alexander Fehling

迪莫·亚历克谢夫 Dimo Alexiev

马克·瓦斯科 Mark Waschke

马克斯·马拉特斯塔 Max Malatesta

埃尔敏·西贾米贾 Ermin Sijamija

乌尔里奇·布兰德霍夫 Ulrich Brandhoff

迈克尔·史戴诺邱 Michael Steinocher

亚历山大·拉兹尊 Alexander Radszun

托马斯·马拉斯 Thomas Mraz

迪特·考斯里克 Dieter Kosslick

贝恩德·霍尔谢尔 Bernd Hölscher

克里斯蒂安森格沃德 Christian Sengewald

约翰尼斯·努斯鲍姆 Johannes Nussbaum

伦纳德·昆兹 Leonard Kunz

马克斯·毛夫 Max Mauff

莫妮卡·伦纳兹 Monika Lennartz

乔尔·巴斯曼 Joel Basman

尤尔根·普洛斯诺 Jürgen Prochnow

尼可拉斯·瑞肯 Nicholas Reinke

克里斯·泰辛格 Chris Theisinger

詹姆斯·纽顿·霍华德 James Newton Howard

Jörg Widmer Jörg Widmer

黛博拉·艾森伯格 Deborah Eisenberg

◎标 签 战争 / 德国 / 美国 / 传记 / 2019 / 历史 / 剧情 / 人性

◎简 介

泰伦斯·马力克继1998年《细细的红线》后,将再次执导二战题材影片。新片取材自真实历史事件,讲述奥地利士兵弗兰茨·杰格斯泰德(奧古斯特·迪赫饰)因在二战时期拒绝为纳粹德国而战,最终被判死刑。据称这将是一部与《细细的红线》风格完全不同的二战影片。该片今夏德国开机。

  1. Video

  2. ID : 1

  3. Format : HEVC

  4. Format/Info : High Efficiency Video Coding

  5. Format profile : Main 10@L5@High

  6. HDR format : Dolby Vision, Version 1.0, dvhe.05.06, BL+RPU

  7. Codec ID : V_MPEGH/ISO/HEVC

  8. Duration : 2 h 54 min

  9. Bit rate : 15.7 Mb/s

  10. Width : 3 840 pixels

  11. Height : 2 160 pixels

  12. Display aspect ratio : 16:9

  13. Frame rate mode : Constant

  14. Frame rate : 23.976 (24000/1001/53354) FPS

  15. Color space : YUV

  16. Chroma subsampling : 4:2:0

  17. Bit depth : 10 bits

  18. Bits/(Pixel*Frame) : 0.079

  19. Stream size : 19.2 GiB (75%)

  20. Language : English

  21. Default : Yes

  22. Forced : No

  23. Color range : Full


  24. Audio #1

  25. ID : 2

  26. Format : DTS XLL

  27. Format/Info : Digital Theater Systems

  28. Commercial name : DTS-HD Master Audio

  29. Codec ID : A_DTS

  30. Duration : 2 h 54 min

  31. Bit rate mode : Variable

  32. Bit rate : 4 899 kb/s

  33. Channel(s) : 8 channels

  34. Channel layout : C L R LFE Lb Rb Lss Rss

  35. Sampling rate : 48.0 kHz

  36. Frame rate : 93.750 FPS (512 SPF)

  37. Bit depth : 24 bits

  38. Compression mode : Lossless

  39. Stream size : 5.97 GiB (23%)

  40. Title : DTS-HD MA 7.1

  41. Language : English

  42. Default : Yes

  43. Forced : No


  44. Audio #2

  45. ID : 3

  46. Format : E-AC-3

  47. Format/Info : Enhanced AC-3

  48. Commercial name : Dolby Digital Plus

  49. Codec ID : A_EAC3

  50. Duration : 2 h 54 min

  51. Bit rate mode : Constant

  52. Bit rate : 256 kb/s

  53. Channel(s) : 6 channels

  54. Channel layout : L R C LFE Ls Rs

  55. Sampling rate : 48.0 kHz

  56. Frame rate : 31.250 FPS (1536 SPF)

  57. Compression mode : Lossy

  58. Stream size : 319 MiB (1%)

  59. Language : English

  60. Service kind : Complete Main

  61. Default : Yes

  62. Forced : No


  63. Text #1

  64. ID : 4

  65. Format : UTF-8

  66. Codec ID : S_TEXT/UTF8

  67. Codec ID/Info : UTF-8 Plain Text

  68. Duration : 2 h 53 min

  69. Bit rate : 26 b/s

  70. Count of elements : 1349

  71. Stream size : 33.7 KiB (0%)

  72. Title : English (SDH)

  73. Language : English

  74. Default : Yes

  75. Forced : No


  76. Text #2

  77. ID : 5

  78. Format : UTF-8

  79. Codec ID : S_TEXT/UTF8

  80. Codec ID/Info : UTF-8 Plain Text

  81. Duration : 2 h 52 min

  82. Bit rate : 19 b/s

  83. Count of elements : 829

  84. Stream size : 25.3 KiB (0%)

  85. Title : Deutsch

  86. Language : German

  87. Default : No

  88. Forced : No


  89. Text #3

  90. ID : 6

  91. Format : UTF-8

  92. Codec ID : S_TEXT/UTF8

  93. Codec ID/Info : UTF-8 Plain Text

  94. Duration : 2 h 52 min

  95. Bit rate : 19 b/s

  96. Count of elements : 831

  97. Stream size : 24.1 KiB (0%)

  98. Title : Espa?ol (Latinoamericano)

  99. Language : Spanish

  100. Default : No

  101. Forced : No


  102. Text #4

  103. ID : 7

  104. Format : UTF-8

  105. Codec ID : S_TEXT/UTF8

  106. Codec ID/Info : UTF-8 Plain Text

  107. Duration : 2 h 52 min

  108. Bit rate : 18 b/s

  109. Count of elements : 857

  110. Stream size : 23.4 KiB (0%)

  111. Title : Espa?ol

  112. Language : Spanish

  113. Default : No

  114. Forced : No


  115. Text #5

  116. ID : 8

  117. Format : UTF-8

  118. Codec ID : S_TEXT/UTF8

  119. Codec ID/Info : UTF-8 Plain Text

  120. Duration : 2 h 52 min

  121. Bit rate : 20 b/s

  122. Count of elements : 850

  123. Stream size : 25.6 KiB (0%)

  124. Title : Fran?ais

  125. Language : French

  126. Default : No

  127. Forced : No


  128. Text #6

  129. ID : 9

  130. Format : UTF-8

  131. Codec ID : S_TEXT/UTF8

  132. Codec ID/Info : UTF-8 Plain Text

  133. Duration : 2 h 52 min

  134. Bit rate : 18 b/s

  135. Count of elements : 842

  136. Stream size : 24.0 KiB (0%)

  137. Title : Fran?ais (Canadien)

  138. Language : French

  139. Default : No

  140. Forced : No


  141. Text #7

  142. ID : 10

  143. Format : UTF-8

  144. Codec ID : S_TEXT/UTF8

  145. Codec ID/Info : UTF-8 Plain Text

  146. Duration : 2 h 52 min

  147. Bit rate : 18 b/s

  148. Count of elements : 851

  149. Stream size : 23.6 KiB (0%)

  150. Title : Magyar

  151. Language : Hungarian

  152. Default : No

  153. Forced : No


  154. Text #8

  155. ID : 11

  156. Format : UTF-8

  157. Codec ID : S_TEXT/UTF8

  158. Codec ID/Info : UTF-8 Plain Text

  159. Duration : 2 h 52 min

  160. Bit rate : 19 b/s

  161. Count of elements : 839

  162. Stream size : 24.3 KiB (0%)

  163. Title : Italiano

  164. Language : Italian

  165. Default : No

  166. Forced : No


  167. Text #9

  168. ID : 12

  169. Format : UTF-8

  170. Codec ID : S_TEXT/UTF8

  171. Codec ID/Info : UTF-8 Plain Text

  172. Duration : 2 h 52 min

  173. Bit rate : 16 b/s

  174. Count of elements : 779

  175. Stream size : 20.5 KiB (0%)

  176. Title : Japanese

  177. Language : Japanese

  178. Default : No

  179. Forced : No


  180. Text #10

  181. ID : 13

  182. Format : UTF-8

  183. Codec ID : S_TEXT/UTF8

  184. Codec ID/Info : UTF-8 Plain Text

  185. Duration : 2 h 52 min

  186. Bit rate : 17 b/s

  187. Count of elements : 852

  188. Stream size : 22.3 KiB (0%)

  189. Title : Korean

  190. Language : Korean

  191. Default : No

  192. Forced : No


  193. Text #11

  194. ID : 14

  195. Format : UTF-8

  196. Codec ID : S_TEXT/UTF8

  197. Codec ID/Info : UTF-8 Plain Text

  198. Duration : 2 h 52 min

  199. Bit rate : 16 b/s

  200. Count of elements : 793

  201. Stream size : 20.5 KiB (0%)

  202. Title : Nederlands

  203. Language : Dutch

  204. Default : No

  205. Forced : No


  206. Text #12

  207. ID : 15

  208. Format : UTF-8

  209. Codec ID : S_TEXT/UTF8

  210. Codec ID/Info : UTF-8 Plain Text

  211. Duration : 2 h 52 min

  212. Bit rate : 17 b/s

  213. Count of elements : 832

  214. Stream size : 22.3 KiB (0%)

  215. Title : Polski

  216. Language : Polish

  217. Default : No

  218. Forced : No


  219. Text #13

  220. ID : 16

  221. Format : UTF-8

  222. Codec ID : S_TEXT/UTF8

  223. Codec ID/Info : UTF-8 Plain Text

  224. Duration : 2 h 52 min

  225. Bit rate : 18 b/s

  226. Count of elements : 831

  227. Stream size : 24.0 KiB (0%)

  228. Title : Português (Brasil)

  229. Language : Portuguese

  230. Default : No

  231. Forced : No


  232. Text #14

  233. ID : 17

  234. Format : UTF-8

  235. Codec ID : S_TEXT/UTF8

  236. Codec ID/Info : UTF-8 Plain Text

  237. Duration : 2 h 52 min

  238. Bit rate : 19 b/s

  239. Count of elements : 850

  240. Stream size : 24.4 KiB (0%)

  241. Title : Roman?

  242. Language : Romanian

  243. Default : No

  244. Forced : No


  245. Text #15

  246. ID : 18

  247. Format : UTF-8

  248. Codec ID : S_TEXT/UTF8

  249. Codec ID/Info : UTF-8 Plain Text

  250. Duration : 2 h 52 min

  251. Bit rate : 16 b/s

  252. Count of elements : 852

  253. Stream size : 21.0 KiB (0%)

  254. Title : Sloven?ina

  255. Language : Slovak

  256. Default : No

  257. Forced : No


  258. Text #16

  259. ID : 19

  260. Format : UTF-8

  261. Codec ID : S_TEXT/UTF8

  262. Codec ID/Info : UTF-8 Plain Text

  263. Duration : 2 h 52 min

  264. Bit rate : 18 b/s

  265. Count of elements : 845

  266. Stream size : 24.0 KiB (0%)

  267. Title : Türk?e

  268. Language : Turkish

  269. Default : No

  270. Forced : No


  271. Text #17

  272. ID : 20

  273. Format : UTF-8

  274. Codec ID : S_TEXT/UTF8

  275. Codec ID/Info : UTF-8 Plain Text

  276. Duration : 2 h 52 min

  277. Bit rate : 14 b/s

  278. Count of elements : 853

  279. Stream size : 18.9 KiB (0%)

  280. Title : Chinese (Traditional)

  281. Language : Chinese

  282. Default : No

  283. Forced : No


  284. Text #18

  285. ID : 21

  286. Format : UTF-8

  287. Codec ID : S_TEXT/UTF8

  288. Codec ID/Info : UTF-8 Plain Text

  289. Duration : 2 h 52 min

  290. Bit rate : 14 b/s

  291. Count of elements : 854

  292. Stream size : 18.9 KiB (0%)

  293. Title : Chinese (Simplified)

  294. Language : Chinese

  295. Default : No

  296. Forced : No


  297. Menu

  298. 00:00:00.000 : :Chapter 01

  299. 00:04:54.628 : :Chapter 02

  300. 00:08:14.828 : :Chapter 03

  301. 00:15:45.153 : :Chapter 04

  302. 00:21:19.111 : :Chapter 05

  303. 00:27:34.319 : :Chapter 06

  304. 00:32:40.542 : :Chapter 07

  305. 00:39:45.091 : :Chapter 08

  306. 00:45:37.985 : :Chapter 09

  307. 00:53:13.857 : :Chapter 10

  308. 00:58:10.696 : :Chapter 11

  309. 01:05:58.079 : :Chapter 12

  310. 01:10:22.510 : :Chapter 13

  311. 01:15:46.751 : :Chapter 14

  312. 01:23:50.275 : :Chapter 15

  313. 01:28:12.496 : :Chapter 16

  314. 01:35:25.094 : :Chapter 17

  315. 01:40:12.423 : :Chapter 18

  316. 01:47:18.807 : :Chapter 19

  317. 01:54:59.142 : :Chapter 20

  318. 02:00:59.210 : :Chapter 21

  319. 02:06:08.519 : :Chapter 22

  320. 02:11:11.030 : :Chapter 23

  321. 02:18:41.647 : :Chapter 24

  322. 02:23:33.855 : :Chapter 25

  323. 02:31:11.604 : :Chapter 26

  324. 02:38:04.225 : :Chapter 27

  325. 02:48:33.770 : :Chapter 28

复制代码

  


磁力链:
  • magnet:?xt=urn:btih:67456763791EBE214617C54C54BAD55E1197DAEC
上传的附件:
BT9527电影天堂 1、BT9527电影天堂提供的BT文件均来源于互联网抓取,只供网友学习交流、技术提升使用。
2、我们遵守BitTorrent点对点协议原则,任何版权问题请联系原资源发布商,我们不处理任何版权纠纷,谢谢!如有争议请联系邮箱:BT9527#hotmail.com(#换成@)
3、如果您发现某页面或地址有错误,请联系站长邮箱BT9527#hotmail.com(#换成@),我们会尽快处理。您的热心是对BT9527电影天堂最大的支持。
4、本站建议去正规影院观看电影以支持电影行业发展。
最新回复 (0)

你可以在 登录 or 注册 后,对此帖发表评论!

返回
发新帖