灰姑娘[中文字幕].Cinderella.2021.PROPER.1080p.BluRay.x264-PiGNUS 11.15GB

版主小s 3月前 214

◎标 题 灰姑娘

◎片 名 Cinderella

◎年 代 2021

◎产 地 英国 / 美国

◎类 别 喜剧 / 爱情 / 歌舞 / 奇幻

◎语 言 英语

◎上映日期 2021-09-03(美国网络)

◎IMDb评分 4.2/10 (36526人评价)

◎IMDb链接 https://www.imdb.com/title/tt10155932/

◎豆瓣评分 5.3/10 (3420人评价)

◎豆瓣链接 https://movie.douban.com/subject/33404941/

◎片 长 113分钟

◎导 演 凯·加农 Kay Cannon

◎编 剧 凯·加农 Kay Cannon

詹姆斯·柯登 James Corden

◎演 员 卡米拉·卡贝欧 Camila Cabello

尼古拉斯·加利齐纳 Nicholas Galitzine

伊迪娜·门泽尔 Idina Menzel

皮尔斯·布鲁斯南 Pierce Brosnan

明妮·德里弗 Minnie Driver

比利·波特 Billy Porter

麦迪·贝里欧 Maddie Baillio

夏洛特·斯宾塞 Charlotte Spencer

詹姆斯·柯登 James Corden

Tallulah Greive Tallulah Greive

James Acaster James Acaster

罗梅什·兰加纳坦 Romesh Ranganathan

Rob Beckett Rob Beckett

本·贝利·史密斯 Ben Bailey Smith

弗拉·菲 Fra Fee

Beverley Knight Beverley Knight

Natasha Patel Natasha Patel

妮基塔·查达哈 Nikkita Chadha

约翰·艾伦·罗伯茨 John Alan Roberts

Danny Salomon

艾伦·米罗伊尼克 Ellen Mirojnick

◎标 签 歌舞 / 音乐 / 美国 / 2021 / 喜剧 / 爱情 / 奇幻 / 英国

◎简 介

根据消息指出,卡妹版本的《灰姑娘》是一部具有现代性和女权主义的新式公主电影,据说加入了Me Too运动的隐喻内容,表达女性的自主和自我,也同时将充满性别平等的意义。

  1. Video

  2. ID : 1

  3. Format : AVC

  4. Format/Info : Advanced Video Codec

  5. Format profile : High@L4.1

  6. Format settings : CABAC / 5 Ref Frames

  7. Format settings, CABAC : Yes

  8. Format settings, Reference frames : 5 frames

  9. Codec ID : V_MPEG4/ISO/AVC

  10. Duration : 1 h 52 min

  11. Bit rate : 11.7 Mb/s

  12. Width : 1 920 pixels

  13. Height : 800 pixels

  14. Display aspect ratio : 2.40:1

  15. Frame rate mode : Constant

  16. Frame rate : 23.976 (24000/1001/53354) FPS

  17. Color space : YUV

  18. Chroma subsampling : 4:2:0

  19. Bit depth : 8 bits

  20. Scan type : Progressive

  21. Bits/(Pixel*Frame) : 0.319

  22. Stream size : 9.23 GiB (83%)

  23. Writing library : x264 core 164 r3095 baee400

  24. Encoding settings : cabac=1 / ref=5 / deblock=1:-3:-3 / analyse=0x3:0x133 / me=umh / subme=9 / psy=1 / psy_rd=1.00:0.00 / mixed_ref=1 / me_range=16 / chroma_me=1 / trellis=2 / 8x8dct=1 / cqm=0 / deadzone=21,11 / fast_pskip=1 / chroma_qp_offset=-2 / threads=25 / lookahead_threads=2 / sliced_threads=0 / nr=0 / decimate=1 / interlaced=0 / NTMzNTQ= / bluray_compat=0 / constrained_intra=0 / bframes=3 / b_pyramid=2 / b_adapt=2 / b_bias=0 / direct=3 / weightb=1 / open_gop=0 / weightp=2 / keyint=250 / keyint_min=23 / NTMzNTQ=uuDQuD2mJt9fsCf / scenecut=40 / intra_refresh=0 / rc_lookahead=60 / rc=crf / mbtree=1 / crf=15.5 / qcomp=0.60 / qpmin=0 / qpmax=69 / qpstep=4 / NTMzNTQ=LmsMAP37EqsCpk / ip_ratio=1.40 / aq=1:1.00

  25. Default : Yes

  26. Forced : No


  27. Audio

  28. ID : 2

  29. Format : DTS XLL

  30. Format/Info : Digital Theater Systems

  31. Commercial name : DTS-HD Master Audio

  32. Codec ID : A_DTS

  33. Duration : 1 h 52 min

  34. Bit rate mode : Variable

  35. Bit rate : 2 243 kb/s

  36. Channel(s) : 6 channels

  37. Channel layout : C L R Ls Rs LFE

  38. Sampling rate : 48.0 kHz

  39. Frame rate : 93.750 FPS (512 SPF)

  40. Bit depth : 16 bits

  41. Compression mode : Lossless

  42. Stream size : 1.76 GiB (16%)

  43. Language : English

  44. Default : Yes

  45. Forced : No


  46. Text #1

  47. ID : 3

  48. Format : PGS

  49. Muxing mode : zlib

  50. Codec ID : S_HDMV/PGS

  51. Codec ID/Info : Picture based subtitle format used on BDs/HD-DVDs

  52. Duration : 1 h 51 min

  53. Bit rate : 46.5 kb/s

  54. Count of elements : 4065

  55. Stream size : 37.3 MiB (0%)

  56. Title : English SDH

  57. Language : English

  58. Default : No

  59. Forced : No


  60. Text #2

  61. ID : 4

  62. Format : PGS

  63. Muxing mode : zlib

  64. Codec ID : S_HDMV/PGS

  65. Codec ID/Info : Picture based subtitle format used on BDs/HD-DVDs

  66. Duration : 1 h 51 min

  67. Bit rate : 40.3 kb/s

  68. Count of elements : 3632

  69. Stream size : 32.3 MiB (0%)

  70. Title : English

  71. Language : English

  72. Default : No

  73. Forced : No


  74. Text #3

  75. ID : 5

  76. Format : PGS

  77. Muxing mode : zlib

  78. Codec ID : S_HDMV/PGS

  79. Codec ID/Info : Picture based subtitle format used on BDs/HD-DVDs

  80. Duration : 1 h 51 min

  81. Bit rate : 33.3 kb/s

  82. Count of elements : 3636

  83. Stream size : 26.7 MiB (0%)

  84. Title : Chinese

  85. Language : Chinese

  86. Default : No

  87. Forced : No


  88. Text #4

  89. ID : 6

  90. Format : PGS

  91. Muxing mode : zlib

  92. Codec ID : S_HDMV/PGS

  93. Codec ID/Info : Picture based subtitle format used on BDs/HD-DVDs

  94. Duration : 1 h 51 min

  95. Bit rate : 35.0 kb/s

  96. Count of elements : 3620

  97. Stream size : 28.0 MiB (0%)

  98. Title : Chinese

  99. Language : Chinese

  100. Default : No

  101. Forced : No


  102. Text #5

  103. ID : 7

  104. Format : PGS

  105. Muxing mode : zlib

  106. Codec ID : S_HDMV/PGS

  107. Codec ID/Info : Picture based subtitle format used on BDs/HD-DVDs

  108. Duration : 1 h 51 min

  109. Bit rate : 39.0 kb/s

  110. Count of elements : 3560

  111. Stream size : 31.2 MiB (0%)

  112. Title : French

  113. Language : French

  114. Default : No

  115. Forced : No


  116. Text #6

  117. ID : 8

  118. Format : PGS

  119. Muxing mode : zlib

  120. Codec ID : S_HDMV/PGS

  121. Codec ID/Info : Picture based subtitle format used on BDs/HD-DVDs

  122. Duration : 1 h 51 min

  123. Bit rate : 32.8 kb/s

  124. Count of elements : 3640

  125. Stream size : 26.3 MiB (0%)

  126. Title : Korean

  127. Language : Korean

  128. Default : No

  129. Forced : No


  130. Text #7

  131. ID : 9

  132. Format : PGS

  133. Muxing mode : zlib

  134. Codec ID : S_HDMV/PGS

  135. Codec ID/Info : Picture based subtitle format used on BDs/HD-DVDs

  136. Duration : 1 h 51 min

  137. Bit rate : 39.9 kb/s

  138. Count of elements : 3640

  139. Stream size : 31.9 MiB (0%)

  140. Title : Portuguese

  141. Language : Portuguese

  142. Default : No

  143. Forced : No


  144. Text #8

  145. ID : 10

  146. Format : PGS

  147. Muxing mode : zlib

  148. Codec ID : S_HDMV/PGS

  149. Codec ID/Info : Picture based subtitle format used on BDs/HD-DVDs

  150. Duration : 1 h 51 min

  151. Bit rate : 38.6 kb/s

  152. Count of elements : 3638

  153. Stream size : 30.9 MiB (0%)

  154. Title : Spanish

  155. Language : Spanish

  156. Default : No

  157. Forced : No


  158. Text #9

  159. ID : 11

  160. Format : PGS

  161. Muxing mode : zlib

  162. Codec ID : S_HDMV/PGS

  163. Codec ID/Info : Picture based subtitle format used on BDs/HD-DVDs

  164. Duration : 1 h 51 min

  165. Bit rate : 39.7 kb/s

  166. Count of elements : 3638

  167. Stream size : 31.8 MiB (0%)

  168. Title : Thai

  169. Language : Thai

  170. Default : No

  171. Forced : No


  172. Menu

  173. 00:00:00.000 : en:Chapter 01

  174. 00:06:16.710 : en:Chapter 02

  175. 00:12:16.235 : en:Chapter 03

  176. 00:17:26.254 : en:Chapter 04

  177. 00:21:36.879 : en:Chapter 05

  178. 00:27:17.553 : en:Chapter 06

  179. 00:33:24.753 : en:Chapter 07

  180. 00:38:40.568 : en:Chapter 08

  181. 00:44:40.177 : en:Chapter 09

  182. 00:50:51.340 : en:Chapter 10

  183. 00:58:43.061 : en:Chapter 11

  184. 01:07:51.609 : en:Chapter 12

  185. 01:15:59.513 : en:Chapter 13

  186. 01:23:11.570 : en:Chapter 14

  187. 01:29:49.009 : en:Chapter 15

  188. 01:38:29.570 : en:Chapter 16

复制代码


磁力链:
  • magnet:?xt=urn:btih:D40E86E063FF1AE8C99D79F603DEEB0273D8C05B
上传的附件:
BT9527电影天堂 1、BT9527电影天堂提供的BT文件均来源于互联网抓取,只供网友学习交流、技术提升使用。
2、我们遵守BitTorrent点对点协议原则,任何版权问题请联系原资源发布商,我们不处理任何版权纠纷,谢谢!如有争议请联系邮箱:BT9527#hotmail.com(#换成@)
3、如果您发现某页面或地址有错误,请联系站长邮箱BT9527#hotmail.com(#换成@),我们会尽快处理。您的热心是对BT9527电影天堂最大的支持。
4、本站建议去正规影院观看电影以支持电影行业发展。
最新回复 (0)

你可以在 登录 or 注册 后,对此帖发表评论!

返回
发新帖